<?xml version="1.0" standalone="no"?>
<!DOCTYPE svg PUBLIC "-//W3C//DTD SVG 1.1//EN" "http://www.w3.org/Graphics/SVG/1.1/DTD/svg11.dtd" >
<svg xmlns="http://www.w3.org/2000/svg">
<metadata>Generated by IcoMoon</metadata>
<defs>
<font id="lem-font" horiz-adv-x="1024">
<font-face units-per-em="1024" ascent="960" descent="-64" />
<missing-glyph horiz-adv-x="1024" />
<glyph unicode="&#x20;" horiz-adv-x="512" d="" />
<glyph unicode="&#xe900;" glyph-name="magento" horiz-adv-x="896" d="M448.445 960l-443.843-256.195v-511.724l126.7-73.247-0.891 511.836 317.143 183.060 317.133-183.060v-511.611l126.7 73.021v512.174zM511.288 118.948l-63.293-36.792-63.631 36.454v512.061l-126.587-73.134 0.225-511.836 189.88-109.701 190.106 109.701v511.836l-126.7 73.134z" />
<glyph unicode="&#xe901;" glyph-name="warning-empty" d="M928-32h-832c-54.4 0-96 44.8-96 96 0 16 3.2 32 12.8 48v0l412.8 764.8c19.2 32 51.2 51.2 86.4 51.2s67.2-19.2 86.4-51.2l416-764.8c6.4-16 9.6-32 9.6-48 0-51.2-44.8-96-96-96zM67.2 80c-3.2-3.2-3.2-9.6-3.2-16 0-19.2 16-32 32-32h832c19.2 0 32 16 32 32 0 6.4 0 9.6-3.2 16l-416 764.8c-12.8 22.4-48 22.4-57.6 0l-416-764.8zM70.4 83.2v0 0zM480 672h64v-384h-64v384zM560 176c0-25.6-22.4-48-48-48s-48 22.4-48 48 22.4 48 48 48c25.6 0 48-22.4 48-48zM512 96c-44.8 0-80 35.2-80 80s35.2 80 80 80c44.8 0 80-35.2 80-80s-35.2-80-80-80zM512 192c-9.6 0-16-6.4-16-16s6.4-16 16-16 16 6.4 16 16-6.4 16-16 16z" />
<glyph unicode="&#xe902;" glyph-name="home-full" d="M992 480c-0.004 0-0.010 0-0.015 0-7.589 0-14.561 2.642-20.047 7.056l0.062-0.048-460 368.032-460-368.032c-5.427-4.372-12.404-7.017-20-7.017-17.678 0-32.009 14.331-32.009 32.009 0 10.083 4.662 19.077 11.948 24.944l0.062 0.048 480 384c5.426 4.373 12.404 7.020 20 7.020s14.574-2.647 20.062-7.068l-0.062 0.048 480-384c7.351-5.914 12.015-14.908 12.015-24.992 0-17.673-14.327-32-32-32-0.005 0-0.011 0-0.016 0h0.001zM512 773.056l-384-307.2v-465.856c0-17.673 14.327-32 32-32v0h256v256h192v-256h256c17.673 0 32 14.327 32 32v0 465.856z" />
<glyph unicode="&#xe903;" glyph-name="down-chevron" d="M512 249.6l-492.8 352 38.4 51.2 454.4-326.4 454.4 326.4 38.4-51.2z" />
<glyph unicode="&#xe904;" glyph-name="warning" d="M1012.256 111.296l-414.4 765.504c-16.888 30.654-48.987 51.078-85.856 51.078s-68.968-20.423-85.601-50.574l-0.255-0.504-414.4-765.504c-7.43-13.312-11.804-29.206-11.804-46.12 0-18.336 5.141-35.472 14.059-50.044l-0.239 0.42c17.149-28.662 48.028-47.553 83.318-47.553 0.183 0 0.367 0.001 0.55 0.002h828.772c0.076 0 0.165 0 0.255 0 53.691 0 97.216 43.525 97.216 97.216 0 16.879-4.302 32.754-11.869 46.587l0.254-0.507zM571.136 608l-22.848-320h-64l-22.848 320zM516.288 96c-31.423 0-56.896 25.473-56.896 56.896s25.473 56.896 56.896 56.896c31.423 0 56.896-25.473 56.896-56.896v0c0-31.423-25.473-56.896-56.896-56.896v0z" />
<glyph unicode="&#xe905;" glyph-name="left-chevron" d="M665.6-44.8l-352 492.8 352 492.8 51.2-38.4-326.4-454.4 326.4-454.4z" />
<glyph unicode="&#xe906;" glyph-name="right-chevron" d="M358.4-44.8l-51.2 38.4 326.4 454.4-326.4 454.4 51.2 38.4 352-492.8z" />
<glyph unicode="&#xe907;" glyph-name="grid" d="M256 928h-192c-17.664 0-32-14.336-32-32v0-192c0-17.664 14.336-32 32-32v0h192c17.664 0 32 14.336 32 32v0 192c0 17.664-14.336 32-32 32v0zM608 928h-192c-17.664 0-32-14.336-32-32v0-192c0-17.664 14.336-32 32-32v0h192c17.664 0 32 14.336 32 32v0 192c0 17.664-14.336 32-32 32v0zM960 928h-192c-17.664 0-32-14.336-32-32v0-192c0-17.664 14.336-32 32-32v0h192c17.664 0 32 14.336 32 32v0 192c0 17.664-14.336 32-32 32v0zM256 576h-192c-17.664 0-32-14.336-32-32v0-192c0-17.664 14.336-32 32-32v0h192c17.664 0 32 14.336 32 32v0 192c0 17.664-14.336 32-32 32v0zM608 576h-192c-17.664 0-32-14.336-32-32v0-192c0-17.664 14.336-32 32-32v0h192c17.664 0 32 14.336 32 32v0 192c0 17.664-14.336 32-32 32v0zM960 576h-192c-17.664 0-32-14.336-32-32v0-192c0-17.664 14.336-32 32-32v0h192c17.664 0 32 14.336 32 32v0 192c0 17.664-14.336 32-32 32v0zM256 224h-192c-17.664 0-32-14.336-32-32v0-192c0-17.664 14.336-32 32-32v0h192c17.664 0 32 14.336 32 32v0 192c0 17.664-14.336 32-32 32v0zM608 224h-192c-17.664 0-32-14.336-32-32v0-192c0-17.664 14.336-32 32-32v0h192c17.664 0 32 14.336 32 32v0 192c0 17.664-14.336 32-32 32v0zM960 224h-192c-17.664 0-32-14.336-32-32v0-192c0-17.664 14.336-32 32-32v0h192c17.664 0 32 14.336 32 32v0 192c0 17.664-14.336 32-32 32v0z" />
<glyph unicode="&#xe908;" glyph-name="up-chevron" d="M966.4 243.2l-454.4 326.4-454.4-326.4-38.4 51.2 492.8 352 492.8-352z" />
<glyph unicode="&#xe909;" glyph-name="cloud-full" d="M608 864c-197.705-0.089-363.155-138.081-405.383-322.999l-0.537-2.793c-116.229-25.802-201.853-128.006-201.853-250.208 0-141.305 114.486-255.871 255.761-256h352.012c229.75 0 416 186.25 416 416s-186.25 416-416 416v0zM702.368 328.992c-2.656-5.362-8.088-8.986-14.367-8.992h-144.001v-160c0-17.673-14.327-32-32-32s-32 14.327-32 32v0 160h-144c-0.009 0-0.019 0-0.029 0-8.837 0-16 7.163-16 16 0 3.748 1.289 7.194 3.447 9.921l-0.026-0.033 176 224c3.059 3.568 7.571 5.815 12.608 5.815s9.549-2.247 12.589-5.793l0.019-0.022 176-224c2.116-2.687 3.394-6.121 3.394-9.853 0-2.564-0.603-4.988-1.675-7.136l0.042 0.093z" />
<glyph unicode="&#xe90a;" glyph-name="announcements" d="M512-64c-70.4 0-128 57.6-128 128h64c0-35.2 28.8-64 64-64s64 28.8 64 64h64c0-70.4-57.6-128-128-128zM928 128h-889.6l28.8 48c0 0 92.8 153.6 92.8 272v160c0 195.2 156.8 352 352 352s352-156.8 352-352v-160c0-118.4 89.6-268.8 92.8-272l28.8-48h-57.6zM150.4 192h723.2c-28.8 60.8-73.6 163.2-73.6 256v160c0 160-128 288-288 288s-288-128-288-288v-160c0-92.8-44.8-195.2-73.6-256z" />
<glyph unicode="&#xe90b;" glyph-name="account-full" d="M729.152 395.52c-59.904-47.136-135.2-75.52-217.152-75.52s-157.248 28.384-217.152 75.52c-155.712-79.424-262.848-241.024-262.848-427.52v-32h960v32c0 186.496-107.136 348.096-262.848 427.52zM512 960c-158.784 0-288-129.216-288-288s129.216-288 288-288 288 129.216 288 288-129.216 288-288 288z" />
<glyph unicode="&#xe90c;" glyph-name="dashboard-full" d="M512 864c-0.162 0-0.354 0-0.546 0-282.434 0-511.392-228.958-511.392-511.392 0-116.132 38.71-223.222 103.931-309.072l-0.92 1.264c5.9-7.807 15.167-12.8 25.6-12.8h766.688c10.433 0 19.7 4.993 25.542 12.72l0.058 0.080c64.308 84.136 103.040 190.803 103.040 306.518 0 0.24 0 0.479 0 0.719v-0.037c-0.346 282.631-229.369 511.654-511.967 512h-0.033zM480 752c0 8.837 7.163 16 16 16v0h32c8.837 0 16-7.163 16-16v0-96c0-8.837-7.163-16-16-16v0h-32c-8.837 0-16 7.163-16 16v0zM224 336c0-8.837-7.163-16-16-16v0h-96c-8.837 0-16 7.163-16 16v0 32c0 8.837 7.163 16 16 16v0h96c8.837 0 16-7.163 16-16v0zM557.248 306.752c-11.581-11.578-27.578-18.738-45.248-18.738s-33.667 7.161-45.248 18.739v0c-18.944 18.976-216.96 278.048-239.456 307.52-1.998 2.641-3.2 5.98-3.2 9.6 0 8.837 7.163 16 16 16 3.62 0 6.959-1.202 9.64-3.229l-0.040 0.029c29.504-22.4 288.608-220.48 307.552-239.456 11.568-11.579 18.722-27.57 18.722-45.232s-7.154-33.653-18.723-45.233l0.001 0.001zM726.848 544.352l-22.624 22.624c-2.894 2.895-4.685 6.895-4.685 11.312s1.79 8.417 4.685 11.312l67.904 67.872c2.895 2.894 6.895 4.685 11.312 4.685s8.417-1.79 11.312-4.685l22.624-22.624c2.894-2.895 4.685-6.895 4.685-11.312s-1.79-8.417-4.685-11.312l-67.904-67.872c-2.89-2.866-6.87-4.637-11.264-4.637s-8.374 1.771-11.265 4.638l0.001-0.001zM912 320h-96c-8.837 0-16 7.163-16 16v0 32c0 8.837 7.163 16 16 16v0h96c8.837 0 16-7.163 16-16v0-32c0-8.837-7.163-16-16-16v0z" />
<glyph unicode="&#xe90d;" glyph-name="arrow-down-empty" d="M512-44.8l-396.8 396.8 140.8 140.8 160-160v595.2h192v-595.2l160 160 140.8-140.8-396.8-396.8zM204.8 352l307.2-307.2 307.2 307.2-51.2 51.2-224-224v684.8h-64v-684.8l-224 224-51.2-51.2z" />
<glyph unicode="&#xe90e;" glyph-name="checkmark" d="M352 69.472l-314.528 314.528 90.528 90.528 224-224 576 576 90.528-90.528-666.528-666.528z" />
<glyph unicode="&#xe90f;" glyph-name="arrow-left-empty" d="M416 51.2l-396.8 396.8 396.8 396.8 140.8-140.8-160-160h595.2v-192h-595.2l160-160-140.8-140.8zM108.8 448l307.2-307.2 51.2 51.2-224 224h684.8v64h-684.8l224 224-51.2 51.2-307.2-307.2z" />
<glyph unicode="&#xe910;" glyph-name="filter-full" d="M320 928c-0.010 0-0.021 0-0.033 0-77.038 0-141.36-54.446-156.584-126.958l-0.183-1.042h-99.2c-17.673 0-32-14.327-32-32s14.327-32 32-32v0h99.2c15.408-73.554 79.729-128 156.767-128 88.366 0 160 71.634 160 160 0 88.354-71.616 159.981-159.966 160h-0.002zM992 768c0 17.673-14.327 32-32 32v0h-416v-64h416c17.673 0 32 14.327 32 32v0zM320 288c-0.010 0-0.021 0-0.033 0-77.038 0-141.36-54.446-156.584-126.958l-0.183-1.042h-99.2c-17.673 0-32-14.327-32-32s14.327-32 32-32v0h99.2c15.408-73.554 79.729-128 156.767-128 88.366 0 160 71.634 160 160 0 88.354-71.616 159.981-159.966 160h-0.002zM992 128c0 17.673-14.327 32-32 32v0h-416v-64h416c17.673 0 32 14.327 32 32v0zM960 480h-99.2c-15.408 73.554-79.729 128-156.767 128-88.366 0-160-71.634-160-160s71.634-160 160-160c77.038 0 141.36 54.446 156.584 126.958l0.183 1.042h99.2c17.673 0 32 14.327 32 32s-14.327 32-32 32v0zM32 448c0-17.673 14.327-32 32-32v0h416v64h-416c-17.673 0-32-14.327-32-32v0z" />
<glyph unicode="&#xe911;" glyph-name="arrow-right-empty" d="M608 51.2l-140.8 140.8 160 160h-595.2v192h595.2l-160 160 140.8 140.8 396.8-396.8-396.8-396.8zM556.8 192l51.2-51.2 307.2 307.2-307.2 307.2-51.2-51.2 224-224h-684.8v-64h684.8l-224-224z" />
<glyph unicode="&#xe912;" glyph-name="circle-down-full" d="M512 960c-282.77 0-512-229.23-512-512s229.23-512 512-512c282.77 0 512 229.23 512 512v0c-0.853 282.427-229.574 511.148-511.919 512h-0.081zM726.4 489.6l-192-192c-5.647-5.917-13.594-9.595-22.4-9.595s-16.753 3.679-22.389 9.583l-0.011 0.012-192 192c-5.598 5.709-9.054 13.538-9.054 22.174 0 17.496 14.184 31.68 31.68 31.68 8.636 0 16.464-3.455 22.179-9.059l169.595-169.595 169.6 169.6c5.709 5.598 13.538 9.054 22.174 9.054 17.496 0 31.68-14.184 31.68-31.68 0-8.636-3.455-16.464-9.059-22.179l0.005 0.005z" />
<glyph unicode="&#xe913;" glyph-name="arrow-up-empty" d="M608-32h-192v595.2l-160-160-140.8 140.8 396.8 396.8 396.8-396.8-140.8-140.8-160 160v-595.2zM480 32h64v684.8l224-224 51.2 51.2-307.2 307.2-307.2-307.2 51.2-51.2 224 224v-684.8z" />
<glyph unicode="&#xe914;" glyph-name="attach" d="M377.6-32c-83.2 0-163.2 32-220.8 92.8-60.8 57.6-92.8 137.6-92.8 220.8s32 163.2 92.8 220.8l358.4 361.6c44.8 41.6 99.2 64 160 64s115.2-22.4 160-64v0l-12.8-16 16 16c41.6-41.6 64-99.2 64-160s-22.4-115.2-64-160v0l-336-336c-25.6-25.6-60.8-41.6-96-41.6s-70.4 16-96 41.6c-25.6 25.6-41.6 57.6-41.6 96s16 70.4 41.6 96l342.4 352 44.8-44.8-342.4-352c-16-12.8-22.4-32-22.4-51.2s6.4-38.4 22.4-51.2c28.8-28.8 76.8-28.8 102.4 0l336 336c28.8 32 48 73.6 48 115.2s-16 83.2-44.8 115.2c-32 28.8-70.4 44.8-115.2 44.8s-83.2-16-115.2-48l-364.8-358.4c-48-48-73.6-108.8-73.6-176s25.6-128 73.6-176c48-48 108.8-73.6 176-73.6s128 25.6 176 73.6l374.4 371.2 44.8-44.8-371.2-371.2c-60.8-60.8-140.8-92.8-224-92.8z" />
<glyph unicode="&#xe915;" glyph-name="locked-full" d="M736 608h-64v128c0 88.366-71.634 160-160 160s-160-71.634-160-160v0-128h-64v128c0 123.712 100.288 224 224 224s224-100.288 224-224v0zM864 544h-704c-35.346 0-64-28.654-64-64v0-480c0-35.346 28.654-64 64-64v0h704c35.346 0 64 28.654 64 64v0 480c0 35.346-28.654 64-64 64v0zM544 164.544v-68.544c0-17.673-14.327-32-32-32s-32 14.327-32 32v0 68.544c-55.647 14.719-96 64.615-96 123.935 0 70.692 57.308 128 128 128s128-57.308 128-128c0-59.321-40.353-109.217-95.107-123.734l-0.893-0.201z" />
<glyph unicode="&#xe916;" glyph-name="shape-circle" d="M512 928c-265.097 0-480-214.903-480-480s214.903-480 480-480c265.097 0 480 214.903 480 480v0c-0.309 264.972-215.027 479.69-479.97 480h-0.030z" />
<glyph unicode="&#xe917;" glyph-name="euro" d="M611.456 800c2.967 0.115 6.451 0.18 9.95 0.18 61.854 0 118.937-20.425 164.873-54.898l-0.71 0.51 62.944-49.344 98.688 125.952-62.944 49.312c-71.662 55.18-162.689 88.437-261.483 88.437-3.98 0-7.946-0.054-11.9-0.161l0.583 0.013c-246.176 0-384.8-159.712-432.768-352h-146.688v-96h130.4c-1.984-21.28-3.36-42.624-3.36-64s1.376-42.72 3.36-64h-130.4v-96h146.688c48-192.288 186.592-352 432.768-352 3.371-0.095 7.338-0.149 11.317-0.149 98.794 0 189.821 33.257 262.496 89.186l-1.013-0.749 62.944 49.312-98.72 125.92-62.944-49.344c-45.217-33.944-102.285-54.356-164.12-54.356-3.503 0-6.99 0.066-10.461 0.195l0.501-0.015c-4.469-0.273-9.692-0.428-14.952-0.428-119.846 0-220.862 80.621-251.774 190.587l-0.442 1.841h295.712v96h-317.088c-2.465 19.215-3.872 41.443-3.872 64s1.407 44.786 4.138 66.603l-0.266-2.603h317.088v96h-295.712c31.353 111.807 132.37 192.428 252.216 192.428 5.26 0 10.484-0.155 15.667-0.462l-0.715 0.034z" />
<glyph unicode="&#xe918;" glyph-name="blocked" d="M512-64c-281.6 0-512 230.4-512 512s230.4 512 512 512 512-230.4 512-512-230.4-512-512-512zM512 896c-246.4 0-448-201.6-448-448s201.6-448 448-448 448 201.6 448 448-201.6 448-448 448zM512 64c-80 0-156.8 22.4-217.6 67.2l-32 22.4 544 544 22.4-32c44.8-64 67.2-140.8 67.2-217.6 0-211.2-172.8-384-384-384zM364.8 163.2c44.8-22.4 96-35.2 147.2-35.2 176 0 320 144 320 320 0 51.2-12.8 99.2-35.2 147.2l-432-432zM217.6 201.6l-22.4 32c-44.8 57.6-67.2 134.4-67.2 214.4 0 211.2 172.8 384 384 384 80 0 156.8-22.4 217.6-67.2l32-22.4-544-540.8zM512 768c-176 0-320-144-320-320 0-51.2 12.8-102.4 35.2-147.2l432 432c-44.8 22.4-96 35.2-147.2 35.2z" />
<glyph unicode="&#xe919;" glyph-name="announcements-full" d="M985.6 147.2s-121.6 150.4-121.6 300.8v160c0 194.404-157.596 352-352 352v0 0c-194.404 0-352-157.596-352-352v0-160c0-150.4-118.4-297.6-121.6-300.8-4.135-5.602-6.618-12.644-6.618-20.265 0-5.432 1.262-10.57 3.508-15.136l-0.090 0.202c6.014-9.664 16.578-16 28.622-16 0.063 0 0.125 0 0.188 0.001h895.99c0.089-0.001 0.194-0.001 0.3-0.001 12.821 0 23.809 7.846 28.426 18.997l0.075 0.204c2.080 3.933 3.302 8.597 3.302 13.546 0 7.013-2.452 13.452-6.545 18.509l0.043-0.055zM387.2 32c14.596-55.631 64.427-96.005 123.689-96.005 0.391 0 0.781 0.002 1.171 0.005h-0.060c59.363 0.507 109.233 40.563 124.579 95.081l0.221 0.919z" />
<glyph unicode="&#xe91a;" glyph-name="close" d="M113.76 95.008l748.96 748.96 45.248-45.248-748.96-748.96-45.248 45.248zM113.76 800.992l45.248 45.248 748.96-748.96-45.248-45.248-748.96 748.96z" />
<glyph unicode="&#xe91b;" glyph-name="export-upload-full" d="M992 768h-493.888l-86.688 144.48c-5.695 9.361-15.84 15.518-27.424 15.52h-352c-17.673 0-32-14.327-32-32v0-768c0-70.692 57.308-128 128-128v0h768c70.692 0 128 57.308 128 128v0 608c0 17.673-14.327 32-32 32v0zM672 370.752l-128 128v-370.752h-64v370.752l-128-128-45.248 45.248 182.624 182.624c5.791 5.789 13.789 9.369 22.624 9.369s16.833-3.58 22.624-9.369l182.624-182.624z" />
<glyph unicode="&#xe91c;" glyph-name="camera-image" d="M64 896h192v-64h-192v64zM224 592c0-25.6-22.4-48-48-48s-48 22.4-48 48 22.4 48 48 48 48-22.4 48-48zM176 512c-44.8 0-80 35.2-80 80s35.2 80 80 80 80-35.2 80-80-35.2-80-80-80zM176 608c-9.6 0-16-6.4-16-16s6.4-16 16-16 16 6.4 16 16-6.4 16-16 16zM896 0h-768c-70.4 0-128 57.6-128 128v512c0 70.4 57.6 128 128 128h140.8l96 160h291.2l96-160h144c70.4 0 128-57.6 128-128v-512c0-70.4-57.6-128-128-128zM128 704c-35.2 0-64-28.8-64-64v-512c0-35.2 28.8-64 64-64h768c35.2 0 64 28.8 64 64v512c0 35.2-28.8 64-64 64h-179.2l-96 160h-220.8l-96-160h-176zM512 128c-140.8 0-256 115.2-256 256s115.2 256 256 256 256-115.2 256-256-115.2-256-256-256zM512 576c-105.6 0-192-86.4-192-192s86.4-192 192-192 192 86.4 192 192-86.4 192-192 192z" />
<glyph unicode="&#xe91d;" glyph-name="circle-up-full" d="M512 960c-282.77 0-512-229.23-512-512s229.23-512 512-512c282.77 0 512 229.23 512 512v0c-0.853 282.427-229.574 511.148-511.919 512h-0.081zM726.4 361.6c-5.647-5.917-13.594-9.595-22.4-9.595s-16.753 3.679-22.389 9.583l-0.011 0.012-169.6 169.6-169.6-169.6c-5.709-5.598-13.538-9.054-22.174-9.054-17.496 0-31.68 14.184-31.68 31.68 0 8.636 3.455 16.464 9.059 22.179l191.995 191.995c5.647 5.917 13.594 9.595 22.4 9.595s16.753-3.679 22.389-9.583l0.011-0.012 192-192c5.917-5.647 9.595-13.594 9.595-22.4s-3.679-16.753-9.583-22.389l-0.012-0.011z" />
<glyph unicode="&#xe91e;" glyph-name="cart-empty" d="M352 32c0-53.024-42.976-96-96-96s-96 42.976-96 96c0 53.024 42.976 96 96 96s96-42.976 96-96zM960 32c0-53.024-42.976-96-96-96s-96 42.976-96 96c0 53.024 42.976 96 96 96s96-42.976 96-96zM864 224h-640c-24.832 0-45.248 18.848-47.712 43.040l-0.032 0.192-59.68 596.768h-116.576v96h160c24.832 0 45.248-18.848 47.712-43.040l0.032-0.192 14.88-148.768h753.376c26.496 0 48-21.504 48-48 0-4.128-0.512-8.16-1.504-11.968l0.064 0.32-112-448c-5.408-21.056-24.192-36.352-46.56-36.352v0z" />
<glyph unicode="&#xe91f;" glyph-name="tree" d="M800 320c-60.473-0.013-114.397-28.043-149.5-71.815l-0.292-0.377-245.344 136.192c7.052 19.007 11.132 40.963 11.132 63.872s-4.080 44.865-11.554 65.182l0.422-1.31 245.344 136.32c35.758-44.572 90.222-72.864 151.293-72.864 106.869 0 193.504 86.635 193.504 193.504s-86.635 193.504-193.504 193.504c-106.869 0-193.504-86.635-193.504-193.504 0-23.197 4.082-45.44 11.566-66.051l-0.427 1.346-245.344-136.32c-35.481 44.164-89.484 72.192-150.033 72.192-106.039 0-192-85.961-192-192s85.961-192 192-192c60.549 0 114.552 28.028 149.743 71.818l0.291 0.374 245.344-136.064c-6.957-19.057-10.981-41.059-10.981-64 0-106.039 85.961-192 192-192s192 85.961 192 192c0 106.039-85.961 192-192 192-0.055 0-0.109 0-0.164 0h0.009z" />
<glyph unicode="&#xe920;" glyph-name="comment-reflected-empty" d="M931.2-16l-288 118.4c-44.8-9.6-89.6-16-131.2-16-281.6 0-512 192-512 425.6s224 416 512 416c288 0 512-182.4 512-416 0-99.2-38.4-192-112-265.6l19.2-262.4zM649.6 166.4l211.2-86.4-12.8 192 9.6 9.6c67.2 64 102.4 144 102.4 230.4 0 198.4-195.2 352-448 352s-448-153.6-448-352c0-198.4 201.6-361.6 448-361.6 41.6 0 83.2 6.4 128 16h9.6zM256 640h512v-64h-512v64zM256 448h320v-64h-320v64z" />
<glyph unicode="&#xe921;" glyph-name="on-hold-full" d="M512 960c-282.77 0-512-229.23-512-512s229.23-512 512-512c282.77 0 512 229.23 512 512v0c0 282.77-229.23 512-512 512v0zM864 368h-704v160h704z" />
<glyph unicode="&#xe922;" glyph-name="flag" d="M128-64c-17.664 0-32 14.336-32 32v960c0 17.664 14.336 32 32 32s32-14.336 32-32v-960c0-17.664-14.336-32-32-32zM803.776 608l120.832 241.696c4.96 9.92 4.416 21.696-1.408 31.136-5.824 9.408-16.096 15.168-27.2 15.168h-640c-17.664 0-32-14.336-32-32v-512c0-17.664 14.336-32 32-32h640c11.104 0 21.376 5.76 27.232 15.168 5.824 9.44 6.368 21.216 1.408 31.136l-120.864 241.696z" />
<glyph unicode="&#xe923;" d="M512 896c247.424 0 448-200.576 448-448s-200.576-448-448-448c-247.424 0-448 200.576-448 448v0c0 247.424 200.576 448 448 448v0zM512 960c-282.77 0-512-229.23-512-512s229.23-512 512-512c282.77 0 512 229.23 512 512v0c0 282.77-229.23 512-512 512v0z" />
<glyph unicode="&#xe924;" d="M160 528h704v-160h-704z" />
<glyph unicode="&#xe925;" glyph-name="products-full" d="M544 483.776l448 224-497.696 248.864c-8.992 4.512-19.616 4.512-28.64 0l-433.664-216.864 512-256zM576 428.224v-480l430.304 215.168c10.848 5.408 17.696 16.48 17.696 28.608v460.224l-448-224zM512 428.224l-512 256v-460.224c0-12.128 6.848-23.2 17.696-28.64l494.304-247.136v480z" />
<glyph unicode="&#xe926;" glyph-name="chat-empty" d="M416 412.8v547.2h608v-384h-403.2l-204.8-163.2zM480 896v-348.8l115.2 92.8h364.8v256h-480zM800 256c-70.4 0-128 57.6-128 128s57.6 128 128 128 128-57.6 128-128c0-70.4-57.6-128-128-128zM800 448c-35.2 0-64-28.8-64-64s28.8-64 64-64 64 28.8 64 64c0 35.2-28.8 64-64 64zM224 256c-70.4 0-128 57.6-128 128s57.6 128 128 128 128-57.6 128-128c0-70.4-57.6-128-128-128zM224 448c-35.2 0-64-28.8-64-64s28.8-64 64-64 64 28.8 64 64c0 35.2-28.8 64-64 64zM448-32h-448v128c0 35.2 19.2 64 48 83.2 35.2 19.2 92.8 44.8 176 44.8s140.8-25.6 176-44.8c28.8-19.2 48-51.2 48-83.2v-128zM64 32h320v64c0 12.8-6.4 22.4-16 28.8-28.8 16-76.8 35.2-144 35.2s-115.2-19.2-144-35.2c-9.6-6.4-16-19.2-16-28.8v-64zM1024-32h-448v128c0 35.2 19.2 64 48 83.2 35.2 22.4 92.8 44.8 176 44.8s140.8-25.6 176-44.8c28.8-19.2 48-51.2 48-83.2v-128zM640 32h320v64c0 12.8-6.4 22.4-16 28.8-28.8 16-76.8 35.2-144 35.2s-115.2-19.2-144-35.2c-9.6-6.4-16-19.2-16-28.8v-64z" />
<glyph unicode="&#xe927;" glyph-name="circle-down-empty" d="M512-64c-281.6 0-512 230.4-512 512s230.4 512 512 512 512-230.4 512-512-230.4-512-512-512zM512 896c-246.4 0-448-201.6-448-448s201.6-448 448-448 448 201.6 448 448-201.6 448-448 448zM512 275.2l-236.8 236.8 44.8 44.8 192-192 192 192 44.8-44.8z" />
<glyph unicode="&#xe928;" glyph-name="circle-left-empty" d="M512-64c-281.6 0-512 230.4-512 512s230.4 512 512 512 512-230.4 512-512-230.4-512-512-512zM512 896c-246.4 0-448-201.6-448-448s201.6-448 448-448 448 201.6 448 448-201.6 448-448 448zM576 211.2l-236.8 236.8 236.8 236.8 44.8-44.8-192-192 192-192z" />
<glyph unicode="&#xe929;" glyph-name="comment-reflected" d="M1024 512c0 233.28-224.896 416-512 416s-512-182.72-512-416c0-234.656 229.696-425.6 512-425.6 46.685 0.125 92.064 5.435 135.677 15.383l-4.125-0.791 288-118.176-18.592 263.968c68.011 67.908 110.309 161.552 111.039 265.076l0.001 0.14zM576 384h-320v64h320zM768 576h-512v64h512z" />
<glyph unicode="&#xe92a;" glyph-name="chat-full" d="M992 960h-544c-17.664 0-32-14.336-32-32v-514.592l192 162.592h384c17.664 0 32 14.336 32 32v320c0 17.664-14.336 32-32 32zM928 384c0-70.692-57.308-128-128-128s-128 57.308-128 128c0 70.692 57.308 128 128 128s128-57.308 128-128zM352 384c0-70.692-57.308-128-128-128s-128 57.308-128 128c0 70.692 57.308 128 128 128s128-57.308 128-128zM400.8 146.144c-35.328 20.928-94.72 45.856-176.8 45.856-83.2 0-142.272-24.832-177.216-45.728-28.832-17.248-46.784-48.832-46.784-82.496v-95.776h448v95.424c0 33.856-18.080 65.536-47.2 82.72zM976.8 146.144c-35.328 20.928-94.72 45.856-176.8 45.856-83.2 0-142.272-24.832-177.216-45.728-28.832-17.248-46.784-48.832-46.784-82.496v-95.776h448v95.424c0 33.856-18.080 65.536-47.2 82.72z" />
<glyph unicode="&#xe92b;" glyph-name="circle-right-empty" d="M512-64c-281.6 0-512 230.4-512 512s230.4 512 512 512 512-230.4 512-512-230.4-512-512-512zM512 896c-246.4 0-448-201.6-448-448s201.6-448 448-448 448 201.6 448 448-201.6 448-448 448zM448 211.2l-44.8 44.8 192 192-192 192 44.8 44.8 236.8-236.8z" />
<glyph unicode="&#xe92c;" glyph-name="info-full" d="M512 960c-282.77 0-512-229.23-512-512s229.23-512 512-512c282.77 0 512 229.23 512 512v0c0 282.77-229.23 512-512 512v0zM544 192c0-17.673-14.327-32-32-32s-32 14.327-32 32v0 352c0 17.673 14.327 32 32 32s32-14.327 32-32v0zM512 672c-26.51 0-48 21.49-48 48s21.49 48 48 48c26.51 0 48-21.49 48-48v0c0-26.51-21.49-48-48-48v0z" />
<glyph unicode="&#xe92d;" glyph-name="circle-up-empty" d="M512-64c-281.6 0-512 230.4-512 512s230.4 512 512 512 512-230.4 512-512-230.4-512-512-512zM512 896c-246.4 0-448-201.6-448-448s201.6-448 448-448 448 201.6 448 448-201.6 448-448 448zM704 339.2l-192 192-192-192-44.8 44.8 236.8 236.8 236.8-236.8z" />
<glyph unicode="&#xe92e;" glyph-name="download-full" d="M992 768h-493.888l-86.688 144.48c-5.695 9.361-15.84 15.518-27.424 15.52h-352c-17.673 0-32-14.327-32-32v0-768c0-70.692 57.308-128 128-128v0h768c70.692 0 128 57.308 128 128v0 608c0 17.673-14.327 32-32 32v0zM534.624 137.376c-5.791-5.789-13.789-9.369-22.624-9.369s-16.833 3.58-22.624 9.369l-182.624 182.624 45.248 45.248 128-128v370.752h64v-370.752l128 128 45.248-45.248z" />
<glyph unicode="&#xe92f;" glyph-name="close-lg" d="M113.755 95.016l748.96 748.96 45.254-45.254-748.96-748.96-45.254 45.254zM113.755 800.984l45.254 45.254 748.96-748.96-45.254-45.254-748.96 748.96z" />
<glyph unicode="&#xe930;" glyph-name="cloud-empty" d="M480 448h64v-384h-64v384zM672 243.2l-160 160-160-160-44.8 44.8 204.8 204.8 204.8-204.8zM384 32h-128c-128 0-236.8 96-252.8 220.8v0c0 9.6-3.2 19.2-3.2 32 0 121.6 86.4 224 201.6 249.6 41.6 192 208 329.6 406.4 329.6 230.4 0 416-185.6 416-416 0-204.8-147.2-374.4-348.8-409.6l-32-6.4-9.6 64 32 6.4c172.8 28.8 294.4 172.8 294.4 345.6 0 195.2-156.8 352-352 352-172.8 0-320-124.8-348.8-294.4l-3.2-22.4-22.4-6.4c-96-12.8-169.6-96-169.6-192 0-6.4 0-16 0-22.4v0c12.8-96 96-166.4 192-166.4h128v-64z" />
<glyph unicode="&#xe931;" glyph-name="circle-right-full" d="M512 960c-282.77 0-512-229.23-512-512s229.23-512 512-512c282.77 0 512 229.23 512 512v0c-0.853 282.427-229.574 511.148-511.919 512h-0.081zM662.4 425.6l-192-192c-5.647-5.917-13.594-9.595-22.4-9.595s-16.753 3.679-22.389 9.583l-0.011 0.012c-5.917 5.647-9.595 13.594-9.595 22.4s3.679 16.753 9.583 22.389l0.012 0.011 169.6 169.6-169.6 169.6c-5.598 5.709-9.054 13.538-9.054 22.174 0 17.496 14.184 31.68 31.68 31.68 8.636 0 16.464-3.455 22.179-9.059l191.995-191.995c5.917-5.647 9.595-13.594 9.595-22.4s-3.679-16.753-9.583-22.389l-0.012-0.011z" />
<glyph unicode="&#xe932;" glyph-name="circle-left-full" d="M512 960c-282.77 0-512-229.23-512-512s229.23-512 512-512c282.77 0 512 229.23 512 512v0c-0.853 282.427-229.574 511.148-511.919 512h-0.081zM598.4 278.4c5.917-5.647 9.595-13.594 9.595-22.4s-3.679-16.753-9.583-22.389l-0.012-0.011c-5.647-5.917-13.594-9.595-22.4-9.595s-16.753 3.679-22.389 9.583l-0.011 0.012-192 192c-5.917 5.647-9.595 13.594-9.595 22.4s3.679 16.753 9.583 22.389l0.012 0.011 192 192c5.709 5.598 13.538 9.054 22.174 9.054 17.496 0 31.68-14.184 31.68-31.68 0-8.636-3.455-16.464-9.059-22.179l-169.595-169.595z" />
<glyph unicode="&#xe933;" glyph-name="compare" d="M32 480h384v-64h-384v64zM224 211.2l-44.8 44.8 192 192-192 192 44.8 44.8 236.8-236.8zM608 480h384v-64h-384v64zM800 211.2l-236.8 236.8 236.8 236.8 44.8-44.8-192-192 192-192z" />
<glyph unicode="&#xe934;" glyph-name="contact-adress-empty" d="M576 512h288v-64h-288v64zM576 352h288v-64h-288v64zM320 416c-54.4 0-96 41.6-96 96s41.6 96 96 96 96-41.6 96-96-41.6-96-96-96zM320 544c-19.2 0-32-12.8-32-32s12.8-32 32-32 32 12.8 32 32-12.8 32-32 32zM512 192h-384v32c0 89.6 70.4 160 160 160h64c89.6 0 160-70.4 160-160v-32zM198.4 256h246.4c-12.8 38.4-48 64-89.6 64h-67.2c-41.6 0-76.8-25.6-89.6-64zM1024 32h-1024v832h256v-32c0-35.2 28.8-64 64-64s64 28.8 64 64v32h256v-32c0-35.2 28.8-64 64-64s64 28.8 64 64v32h256v-832zM64 96h896v704h-131.2c-12.8-54.4-64-96-124.8-96s-108.8 41.6-124.8 96h-137.6c-12.8-54.4-64-96-124.8-96s-105.6 41.6-121.6 96h-131.2v-704z" />
<glyph unicode="&#xe935;" glyph-name="content-empty" d="M448 224h-320v320h320v-320zM192 288h192v192h-192v-192zM512 512h384v-64h-384v64zM512 384h256v-64h-256v64zM1024 0h-1024v896h1024v-896zM64 64h896v768h-896v-768zM0 736h1024v-64h-1024v64zM192 896h64v-224h-64v224z" />
<glyph unicode="&#xe936;" glyph-name="customer-empty" d="M672-64h-320v256h-96v256c0 89.6 70.4 160 160 160h192c89.6 0 160-70.4 160-160v-256h-96v-256zM416 0h192v256h96v192c0 54.4-41.6 96-96 96h-192c-54.4 0-96-41.6-96-96v-192h96v-256zM512 640c-89.6 0-160 70.4-160 160s70.4 160 160 160 160-70.4 160-160-70.4-160-160-160zM512 896c-54.4 0-96-41.6-96-96s41.6-96 96-96 96 41.6 96 96-41.6 96-96 96z" />
<glyph unicode="&#xe937;" glyph-name="down" d="M949.472 681.6c-2.541 3.281-6.276 5.533-10.542 6.103l-0.082 0.009c-0.584 0.074-1.26 0.116-1.946 0.116-3.723 0-7.155-1.247-9.901-3.345l0.039 0.029-415.040-319.104-415.040 319.392c-2.664 2.055-6.049 3.294-9.723 3.294-5.145 0-9.722-2.428-12.649-6.201l-0.027-0.036-58.56-76.224c-2.055-2.664-3.294-6.049-3.294-9.723 0-5.145 2.428-9.722 6.201-12.649l0.036-0.027 483.456-372.032c2.67-2.072 6.069-3.322 9.76-3.322s7.090 1.25 9.796 3.349l-0.036-0.027 483.2 371.872c3.809 2.954 6.238 7.532 6.238 12.677 0 3.674-1.239 7.060-3.321 9.761l0.028-0.037z" />
<glyph unicode="&#xe938;" glyph-name="prev" d="M752 874.848c-0.579 4.348-2.831 8.083-6.075 10.597l-0.037 0.027-76.256 58.528c-2.664 2.055-6.049 3.294-9.723 3.294-5.145 0-9.722-2.428-12.649-6.201l-0.027-0.036-372.032-483.456c-2.072-2.67-3.322-6.069-3.322-9.76s1.25-7.090 3.349-9.796l-0.027 0.036 371.872-483.2c2.954-3.809 7.532-6.238 12.677-6.238 3.674 0 7.060 1.239 9.761 3.321l-0.037-0.028 76.128 58.592c3.809 2.954 6.238 7.532 6.238 12.677 0 3.674-1.239 7.060-3.321 9.761l0.028-0.037-319.136 415.072 319.392 415.040c2.077 2.673 3.33 6.076 3.33 9.771 0 0.718-0.047 1.425-0.139 2.118l0.009-0.081z" />
<glyph unicode="&#xe939;" glyph-name="next" d="M376.8 941.056c-2.954 3.809-7.532 6.238-12.677 6.238-3.674 0-7.060-1.239-9.761-3.321l0.037 0.028-76-58.528c-3.809-2.954-6.238-7.532-6.238-12.677 0-3.674 1.239-7.060 3.321-9.761l-0.028 0.037 319.136-415.072-319.392-415.040c-2.055-2.664-3.294-6.049-3.294-9.723 0-5.145 2.428-9.722 6.201-12.649l0.036-0.027 76.224-58.56c2.664-2.055 6.049-3.294 9.723-3.294 5.145 0 9.722 2.428 12.649 6.201l0.027 0.036 372.032 483.296c2.072 2.67 3.322 6.069 3.322 9.76s-1.25 7.090-3.349 9.796l0.027-0.036z" />
<glyph unicode="&#xe93a;" glyph-name="up" d="M1005.056 312.8l-483.296 372c-2.67 2.072-6.069 3.322-9.76 3.322s-7.090-1.25-9.796-3.349l0.036 0.027-483.296-372c-3.809-2.954-6.238-7.532-6.238-12.677 0-3.674 1.239-7.060 3.321-9.761l-0.028 0.037 58.528-76c2.954-3.809 7.532-6.238 12.677-6.238 3.674 0 7.060 1.239 9.761 3.321l-0.037-0.028 415.072 319.136 415.040-319.392c2.641-1.998 5.98-3.2 9.6-3.2v0c0.311-0.023 0.674-0.036 1.040-0.036s0.729 0.013 1.088 0.039l-0.048-0.003c4.348 0.579 8.083 2.831 10.597 6.075l0.027 0.037 58.656 76.256c2.064 2.667 3.309 6.060 3.309 9.744 0 5.152-2.435 9.735-6.216 12.661l-0.037 0.027z" />
<glyph unicode="&#xe93b;" glyph-name="drag-gripper-full" d="M262.4 693.76h225.28v-225.28h-225.28zM536.64-64h196.8c0.096-0.001 0.209-0.002 0.322-0.002 15.376 0 27.84 12.464 27.84 27.84 0 0.113-0.001 0.226-0.002 0.339v-0.017 195.84h-224zM487.36 736v224h-196.8c-0.096 0.001-0.209 0.002-0.322 0.002-15.376 0-27.84-12.464-27.84-27.84 0-0.113 0.001-0.226 0.002-0.339v0.017-195.84zM536.64 693.76h225.28v-225.28h-225.28zM262.4 427.52h225.28v-225.28h-225.28zM536.64 427.52h225.28v-225.28h-225.28zM733.44 960h-196.8v-224h224v195.84c0.001 0.097 0.002 0.212 0.002 0.327 0 15.151-12.103 27.476-27.169 27.832l-0.033 0.001zM487.36 160h-224v-197.12c-0.001-0.096-0.002-0.209-0.002-0.322 0-15.376 12.464-27.84 27.84-27.84 0.113 0 0.226 0.001 0.339 0.002h196.783z" />
<glyph unicode="&#xe93c;" glyph-name="drag-gripper-empty" d="M423.36 629.76v-96h-96v96h96zM487.36 693.76h-224v-224h224v224zM697.6 96v-96h-96v96h96zM761.6 160h-224v-224h196.8c0.096-0.001 0.209-0.002 0.322-0.002 15.376 0 27.84 12.464 27.84 27.84 0 0.113-0.001 0.226-0.002 0.339v-0.017 195.84zM423.36 896v-96h-96v96h96zM487.36 960h-196.8c-0.096 0.001-0.209 0.002-0.322 0.002-15.376 0-27.84-12.464-27.84-27.84 0-0.113 0.001-0.226 0.002-0.339v0.017-195.84h224v224zM697.6 629.76v-96h-96v96h96zM761.6 693.76h-224v-224h224v224zM423.36 363.52v-96h-96v96h96zM487.36 427.52h-224v-224h224v224zM697.6 363.52v-96h-96v96h96zM761.6 427.52h-224v-224h224v224zM697.6 896v-96h-96v96h96zM733.44 960h-196.8v-224h224v195.84c0.001 0.097 0.002 0.212 0.002 0.327 0 15.151-12.103 27.476-27.169 27.832l-0.033 0.001zM423.36 96v-96h-96v96h96zM487.36 160h-224v-197.12c-0.001-0.096-0.002-0.209-0.002-0.322 0-15.376 12.464-27.84 27.84-27.84 0.113 0 0.226 0.001 0.339 0.002h196.783v225.28z" />
<glyph unicode="&#xe93d;" glyph-name="blocked-full" d="M512 960c-282.77 0-512-229.23-512-512s229.23-512 512-512c282.77 0 512 229.23 512 512v0c-0.346 282.631-229.369 511.654-511.967 512h-0.033zM128 448c0 0.177 0 0.387 0 0.597 0 211.742 171.65 383.392 383.392 383.392 83.57 0 160.896-26.739 223.887-72.127l-1.135 0.778-534.784-534.784c-44.609 61.649-71.356 138.772-71.36 222.142v0.002zM512 64c-0.016 0-0.035 0-0.054 0-83.354 0-160.461 26.748-223.206 72.128l1.115-0.768 534.784 534.784c44.611-61.857 71.349-139.182 71.349-222.752 0-211.742-171.65-383.392-383.392-383.392-0.21 0-0.42 0-0.63 0.001h0.033z" />
<glyph unicode="&#xe93e;" glyph-name="dashboard-empty" d="M480 832h64v-128h-64v128zM738.272 623.86l90.509 90.509 45.254-45.254-90.509-90.509-45.254 45.254zM864 384h128v-64h-128v64zM32 384h128v-64h-128v64zM232.873 584.084l45.254 45.254 187.806-187.806-45.254-45.254-187.806 187.806zM512 224c-70.4 0-128 57.6-128 128s57.6 128 128 128c70.4 0 128-57.6 128-128s-57.6-128-128-128zM512 416c-35.2 0-64-28.8-64-64s28.8-64 64-64c35.2 0 64 28.8 64 64s-28.8 64-64 64zM912 32h-800l-9.6 12.8c-67.2 89.6-102.4 195.2-102.4 307.2 0 281.6 230.4 512 512 512s512-230.4 512-512c0-112-35.2-217.6-102.4-307.2l-9.6-12.8zM144 96h732.8c54.4 76.8 80 163.2 80 256 0 246.4-201.6 448-448 448s-444.8-201.6-444.8-448c0-92.8 28.8-179.2 80-256z" />
<glyph unicode="&#xe93f;" glyph-name="calendar" d="M32 608h960v-64h-960v64zM896-32h-768c-70.4 0-128 57.6-128 128v640c0 70.4 57.6 128 128 128h768c70.4 0 128-57.6 128-128v-640c0-70.4-57.6-128-128-128zM128 800c-35.2 0-64-28.8-64-64v-640c0-35.2 28.8-64 64-64h768c35.2 0 64 28.8 64 64v640c0 35.2-28.8 64-64 64h-768zM224 960h64v-256h-64v256zM736 960h64v-256h-64v256zM128 320h768v-64h-768v64zM352 480h64v-384h-64v384zM608 480h64v-384h-64v384z" />
<glyph unicode="&#xe940;" glyph-name="customer-full" d="M608 576h-192c-88.352 0-160-71.648-160-160v-224h96v-224c0-17.664 14.336-32 32-32h256c17.664 0 32 14.336 32 32v224h96v224c0 88.352-71.648 160-160 160zM672 800c0-88.366-71.634-160-160-160s-160 71.634-160 160c0 88.366 71.634 160 160 160s160-71.634 160-160z" />
<glyph unicode="&#xe941;" glyph-name="trash" d="M768-64h-512c-70.4 0-128 57.6-128 128v480h64v-480c0-35.2 28.8-64 64-64h512c35.2 0 64 28.8 64 64v480h64v-480c0-70.4-57.6-128-128-128zM480 480h64v-352h-64v352zM320 480h64v-352h-64v352zM640 480h64v-352h-64v352zM704 768h-64v128h-256v-128h-64v192h384zM992 608h-960v192h960v-192zM96 672h832v64h-832v-64z" />
<glyph unicode="&#xe942;" glyph-name="delivery-empty" d="M1024 128h-192v64h128v233.6l-99.2 198.4h-188.8v64h227.2l124.8-249.6zM304 192h400v-64h-400v64zM176 128h-176v736h656v-528h-64v464h-528v-608h112zM928 400h-208v192h64v-128h144zM240 32c-70.4 0-128 57.6-128 128s57.6 128 128 128 128-57.6 128-128-57.6-128-128-128zM240 224c-35.2 0-64-28.8-64-64s28.8-64 64-64 64 28.8 64 64-28.8 64-64 64zM768 32c-70.4 0-128 57.6-128 128s57.6 128 128 128 128-57.6 128-128-57.6-128-128-128zM768 224c-35.2 0-64-28.8-64-64s28.8-64 64-64 64 28.8 64 64-28.8 64-64 64z" />
<glyph unicode="&#xe943;" glyph-name="envelope-full" d="M502.4 355.2c-156.8 76.8-310.4 153.6-467.2 230.4-6.4 3.2-12.8 3.2-19.2 0s-6.4-9.6-6.4-16v-454.4c0-6.4 3.2-12.8 9.6-19.2s12.8-9.6 19.2-9.6h947.2c6.4 0 12.8 3.2 19.2 9.6s9.6 12.8 9.6 19.2v454.4c0 6.4-3.2 12.8-6.4 16-6.4 3.2-9.6 3.2-19.2 0-153.6-76.8-310.4-150.4-464-230.4-6.4-3.2-16-3.2-22.4 0zM140.8 620.8c80-38.4 201.6-99.2 361.6-176 3.2 0 6.4-3.2 9.6-3.2h9.6l486.4 240c6.4 3.2 9.6 6.4 9.6 12.8v92.8c0 6.4-3.2 16-9.6 19.2-6.4 6.4-12.8 9.6-22.4 9.6h-950.4c-6.4 0-12.8-3.2-19.2-9.6-3.2-3.2-6.4-12.8-6.4-19.2v-96s0-3.2 3.2-6.4l6.4-6.4 121.6-57.6z" />
<glyph unicode="&#xe944;" glyph-name="question-full" d="M512 960c-282.304 0-512-229.696-512-512s229.696-512 512-512 512 229.696 512 512-229.696 512-512 512zM512 128c-35.36 0-64 28.64-64 64s28.64 64 64 64 64-28.64 64-64-28.64-64-64-64zM669.632 500.64c-30.656-36.544-86.88-68.416-107.968-100.608-12.32-18.752-12.224-40.544-12.224-61.056h-76.16c0 23.552-1.632 58.048 15.552 89.408 10.336 18.912 28.48 38.464 54.368 58.656 51.36 40.544 73.024 61.632 73.024 104.864 0 48.128-35.936 67.584-84.288 67.584-31.872 0-67.168-4.864-129.728-35.744l-32.64 68.352c52.576 29.28 108.896 43.904 168.96 43.904 50.752 0 91.008-12.416 120.8-37.28s44.672-59.168 44.672-102.944c0-36.768-9.984-66.112-34.368-95.136z" />
<glyph unicode="&#xe945;" glyph-name="view-full" d="M1004.032 505.6c-68.384 88.544-253.216 294.4-492.032 294.4-241.856 0-425.056-206.016-492.544-294.4-12.136-15.669-19.453-35.602-19.453-57.244 0-21.845 7.455-41.948 19.96-57.905l-0.155 0.205c68.448-88.672 253.344-294.656 492.192-294.656s423.648 205.856 491.968 294.24c12.365 15.754 19.831 35.866 19.831 57.721 0 21.819-7.44 41.9-19.922 57.845l0.155-0.206zM512 256c-106.039 0-192 85.961-192 192s85.961 192 192 192c106.039 0 192-85.961 192-192v0c0-106.039-85.961-192-192-192v0z" />
<glyph unicode="&#xe946;" glyph-name="document-empty" d="M928 640h-288v288h64v-224h224zM960-64h-896v1024h620.8l275.2-275.2v-748.8zM128 0h768v659.2l-236.8 236.8h-531.2v-896zM256 288h512v-64h-512v64zM256 480h512v-64h-512v64zM256 672h256v-64h-256v64z" />
<glyph unicode="&#xe947;" glyph-name="pointer-down" d="M512 96c10.205 0.976 19.151 5.704 25.571 12.768l0.029 0.032 416 576c4.050 5.001 6.502 11.441 6.502 18.454 0 4.949-1.221 9.613-3.379 13.707l0.077-0.161c-4.692 11.356-15.68 19.201-28.5 19.201-0.105 0-0.211-0.001-0.316-0.002h-831.984c-0.053 0-0.115 0-0.178 0-12.044 0-22.608-6.337-28.539-15.858l-0.083-0.142c-2.157-4.364-3.418-9.502-3.418-14.935 0-7.621 2.483-14.663 6.685-20.36l-0.066 0.094 416-576c6.449-7.096 15.395-11.824 25.44-12.788l0.16-0.012z" />
<glyph unicode="&#xe948;" glyph-name="pointer-left" d="M784 3.2c9.664 6.014 16 16.578 16 28.622 0 0.063 0 0.125-0.001 0.188v-0.010 832c0 0.053 0 0.115 0 0.178 0 12.044-6.337 22.608-15.858 28.539l-0.142 0.083c-3.933 2.080-8.597 3.302-13.546 3.302-7.013 0-13.452-2.452-18.509-6.545l0.055 0.043-576-416c-8.986-5.351-15.123-14.674-15.993-25.485l-0.007-0.115c0.976-10.205 5.704-19.151 12.768-25.571l0.032-0.029 576-416c5.495-3.394 12.019-5.681 19.009-6.384l0.191-0.016c0.774-0.074 1.674-0.116 2.583-0.116 4.907 0 9.528 1.227 13.571 3.392l-0.154-0.075z" />
<glyph unicode="&#xe949;" glyph-name="pointer-right" d="M864 448c-0.976 10.205-5.704 19.151-12.768 25.571l-0.032 0.029-576 416c-5.602 4.135-12.644 6.618-20.265 6.618-5.432 0-10.57-1.262-15.136-3.508l0.202 0.090c-9.664-6.014-16-16.578-16-28.622 0-0.063 0-0.125 0.001-0.188v0.010-832c0-0.053 0-0.115 0-0.178 0-12.044 6.337-22.608 15.858-28.539l0.142-0.083c3.889-2.089 8.51-3.316 13.417-3.316 0.909 0 1.809 0.042 2.697 0.125l-0.114-0.009c7.181 0.719 13.705 3.006 19.397 6.513l-0.197-0.113 576 416c7.096 6.449 11.824 15.395 12.788 25.44l0.012 0.16z" />
<glyph unicode="&#xe94a;" glyph-name="pointer-up" d="M950.4 214.816l-412.8 572.768c-6.153 7.353-15.334 11.997-25.6 11.997s-19.447-4.644-25.557-11.945l-0.043-0.052-416-576c-4.050-5.001-6.502-11.441-6.502-18.454 0-4.949 1.221-9.613 3.379-13.707l-0.077 0.161c4.701-11.357 15.696-19.201 28.522-19.201 0.098 0 0.195 0 0.293 0.001h831.985c0.542-0.035 1.176-0.054 1.814-0.054 16.701 0 30.24 13.539 30.24 30.24 0 0.638-0.020 1.272-0.059 1.901l0.004-0.086c0.007 0.246 0.012 0.536 0.012 0.827 0 8.562-3.699 16.26-9.587 21.583l-0.025 0.022z" />
<glyph unicode="&#xe94b;" glyph-name="edit-empty" d="M618.493 776.243l45.254 45.254 224.009-224.009-45.254-45.254-224.009 224.009zM275.781 254.777l477.434 477.434 45.254-45.254-477.434-477.434-45.254 45.254zM106.493 264.249l45.254 45.254 224.009-224.009-45.254-45.254-224.009 224.009zM22.4-41.6l76.8 345.6 595.2 595.2c35.2 35.2 99.2 35.2 134.4 0l134.4-134.4c19.2-16 28.8-41.6 28.8-67.2s-9.6-51.2-28.8-67.2l-595.2-595.2-345.6-76.8zM156.8 272l-51.2-230.4 230.4 51.2 582.4 582.4c6.4 6.4 9.6 16 9.6 22.4s-3.2 16-9.6 22.4l-134.4 134.4c-12.8 12.8-32 12.8-44.8 0l-582.4-582.4zM352 64v0 0z" />
<glyph unicode="&#xe94c;" glyph-name="envelope" d="M896 32h-768c-70.4 0-128 57.6-128 128v352h64v-352c0-35.2 28.8-64 64-64h768c35.2 0 64 28.8 64 64v352h64v-352c0-70.4-57.6-128-128-128zM512 348.8l-512 272v115.2c0 70.4 57.6 128 128 128h768c70.4 0 128-57.6 128-128v-115.2l-512-272zM64 659.2l448-240 448 240v76.8c0 35.2-28.8 64-64 64h-768c-35.2 0-64-28.8-64-64v-76.8zM992 640v0 0z" />
<glyph unicode="&#xe94d;" glyph-name="wishlist-full" d="M937.952 809.952c-53.205 53.087-126.645 85.914-207.752 85.914-86.435 0-164.163-37.282-217.979-96.642l-0.221-0.247c-53.998 59.765-131.783 97.159-218.302 97.159-162.275 0-293.824-131.549-293.824-293.824 0-81.194 32.934-154.696 86.171-207.877l403.202-403.202c5.791-5.789 13.789-9.369 22.624-9.369s16.833 3.58 22.624 9.369l403.2 403.2c53.167 53.166 86.051 126.615 86.051 207.744s-32.884 154.578-86.051 207.744v0z" />
<glyph unicode="&#xe94e;" glyph-name="recover-full" d="M873.6 809.6c-96 96-224 150.4-361.6 150.4s-265.6-54.4-361.6-150.4c-96-96-150.4-224-150.4-361.6s54.4-265.6 150.4-361.6c96-96 224-150.4 361.6-150.4s265.6 54.4 361.6 150.4c96 96 150.4 224 150.4 361.6s-54.4 265.6-150.4 361.6zM902.4 227.2l-144 144c16 48 16 102.4 0 150.4l144 144c38.4-67.2 57.6-140.8 57.6-220.8s-19.2-150.4-57.6-217.6zM585.6 268.8c0 0 0 0 0 0-25.6-6.4-48-12.8-73.6-12.8s-48 6.4-73.6 12.8c0 0 0 0 0 0-22.4 9.6-44.8 22.4-64 41.6-73.6 73.6-73.6 195.2 0 272 19.2 19.2 41.6 32 64 41.6 0 0 0 0 0 0 22.4 9.6 48 12.8 73.6 12.8s48-6.4 73.6-12.8c0 0 0 0 0 0 22.4-9.6 44.8-22.4 64-41.6 73.6-73.6 73.6-195.2 0-272-19.2-16-41.6-32-64-41.6zM732.8 838.4l-144-144c-25.6 6.4-51.2 9.6-76.8 9.6s-51.2-3.2-76.8-12.8l-144 147.2c67.2 38.4 140.8 57.6 220.8 57.6s153.6-19.2 220.8-57.6zM121.6 668.8l144-144c-16-48-16-102.4 0-150.4l-144-144c-38.4 64-57.6 137.6-57.6 217.6s19.2 153.6 57.6 220.8zM291.2 57.6l144 144c25.6-6.4 51.2-12.8 76.8-12.8s51.2 3.2 76.8 12.8l144-144c-67.2-38.4-140.8-57.6-220.8-57.6s-153.6 19.2-220.8 57.6z" />
<glyph unicode="&#xe94f;" glyph-name="marketing-full" d="M817.312 922.912c-4.891 3.187-10.876 5.083-17.305 5.083-4.805 0-9.363-1.059-13.453-2.957l0.198 0.082-345.696-157.12h-217.056c-123.712 0-224-100.288-224-224s100.288-224 224-224v0h217.056l345.6-157.12c3.916-1.841 8.504-2.915 13.344-2.915 17.673 0 32 14.327 32 32 0 0.012 0 0.025 0 0.037v-0.002 704c0 11.241-5.797 21.129-14.564 26.837l-0.124 0.075zM896 672v-256c70.692 0 128 57.308 128 128s-57.308 128-128 128v0zM424.064 256h-184.8l108.352-266.528c13.004-31.484 43.466-53.236 79.009-53.236 47.081 0 85.248 38.167 85.248 85.248 0 11.359-2.222 22.2-6.255 32.111l0.205-0.57z" />
<glyph unicode="&#xe950;" glyph-name="tools-utilities-full" d="M710.656 409.344l-183.168-200.832 200.736-200.736c24.566-24.573 58.508-39.773 96-39.773s71.434 15.199 96 39.773v0c24.573 24.566 39.773 58.508 39.773 96s-15.199 71.434-39.773 96v0zM423.136 600.864l-295.136 295.136-96-96 290.72-290.72 100.416 91.584zM980.288 788.288l-116.288-116.288-128 128 116.288 116.288c-20.439 7.389-44.026 11.661-68.612 11.661-114.698 0-207.68-92.982-207.68-207.68 0-20.983 3.112-41.239 8.899-60.332l-0.383 1.471-531.648-484.896c-12.842-11.746-20.866-28.576-20.866-47.281 0-16.635 6.347-31.787 16.75-43.168l-0.044 0.049c0.672-0.736 1.344-1.44 2.048-2.144l97.216-97.216c11.581-11.578 27.578-18.738 45.248-18.738s33.667 7.161 45.248 18.739v0c0.704 0.704 1.376 1.408 2.048 2.144l484.896 531.616c17.681-5.446 38.007-8.582 59.065-8.582 114.628 0 207.552 92.924 207.552 207.552 0 24.658-4.3 48.312-12.191 70.253l0.455-1.447z" />
<glyph unicode="&#xe951;" glyph-name="export-upload-empty" d="M480 448h64v-448h-64v448zM672 243.2l-160 160-160-160-44.8 44.8 204.8 204.8 204.8-204.8zM896 0h-256v64h256c35.2 0 64 28.8 64 64v576h-499.2l-96 160h-300.8v-736c0-35.2 28.8-64 64-64h256v-64h-256c-70.4 0-128 57.6-128 128v800h403.2l96-160h524.8v-640c0-70.4-57.6-128-128-128z" />
<glyph unicode="&#xe952;" glyph-name="file-info-empty" d="M960-64h-896v1024h896v-1024zM128 0h768v896h-768v-896zM480 576h64v-416h-64v416zM560 720c0-25.6-22.4-48-48-48s-48 22.4-48 48 22.4 48 48 48c25.6 0 48-22.4 48-48zM512 640c-44.8 0-80 35.2-80 80s35.2 80 80 80c44.8 0 80-35.2 80-80s-35.2-80-80-80zM512 736c-9.6 0-16-6.4-16-16s6.4-16 16-16 16 6.4 16 16-6.4 16-16 16z" />
<glyph unicode="&#xe953;" glyph-name="filter-empty" d="M512 832h512v-64h-512v64zM0 832h192v-64h-192v64zM864 480h160v-64h-160v64zM0 480h544v-64h-544v64zM288 640c-89.6 0-160 70.4-160 160s70.4 160 160 160 160-70.4 160-160-70.4-160-160-160zM288 896c-54.4 0-96-41.6-96-96s41.6-96 96-96 96 41.6 96 96-41.6 96-96 96zM512 128h512v-64h-512v64zM0 128h192v-64h-192v64zM288-64c-89.6 0-160 70.4-160 160s70.4 160 160 160 160-70.4 160-160-70.4-160-160-160zM288 192c-54.4 0-96-41.6-96-96s41.6-96 96-96 96 41.6 96 96-41.6 96-96 96zM640 288c-89.6 0-160 70.4-160 160s70.4 160 160 160 160-70.4 160-160-70.4-160-160-160zM640 544c-54.4 0-96-41.6-96-96s41.6-96 96-96 96 41.6 96 96-41.6 96-96 96z" />
<glyph unicode="&#xe954;" glyph-name="time-full" d="M512 960c-282.77 0-512-229.23-512-512s229.23-512 512-512c282.77 0 512 229.23 512 512v0c-0.346 282.631-229.369 511.654-511.967 512h-0.033zM480 864c0 17.673 14.327 32 32 32s32-14.327 32-32v0-96c0-17.673-14.327-32-32-32s-32 14.327-32 32v0zM192 416h-96c-17.673 0-32 14.327-32 32s14.327 32 32 32v0h96c17.673 0 32-14.327 32-32s-14.327-32-32-32v0zM544 32c0-17.673-14.327-32-32-32s-32 14.327-32 32v0 96c0 17.673 14.327 32 32 32s32-14.327 32-32v0zM704 416h-192c-10.433 0-19.7 4.993-25.542 12.72l-0.058 0.080-192 256c-3.996 5.281-6.4 11.96-6.4 19.2 0 17.673 14.327 32 32 32 10.433 0 19.7-4.993 25.542-12.72l0.058-0.080 182.4-243.2h176c17.673 0 32-14.327 32-32s-14.327-32-32-32v0zM928 416h-96c-17.673 0-32 14.327-32 32s14.327 32 32 32v0h96c17.673 0 32-14.327 32-32s-14.327-32-32-32v0z" />
<glyph unicode="&#xe955;" glyph-name="flag-empty" d="M96 960h64v-1024h-64v1024zM947.2 320h-723.2v576h723.2l-144-288 144-288zM288 384h556.8l-112 224 112 224h-556.8v-448z" />
<glyph unicode="&#xe956;" glyph-name="edit-full" d="M626.752 768l-498.752-498.752 205.248-205.248 498.752 498.752zM92.064 214.688l-58.816-205.888c-3.2-11.2-0.064-23.2 8.128-31.424 6.080-6.080 14.24-9.376 22.624-9.376 2.944 0 5.888 0.416 8.8 1.248l205.888 58.816-186.624 186.624zM982.624 758.624l-160 160c-12.512 12.512-32.736 12.512-45.248 0l-105.376-105.376 205.248-205.248 105.376 105.376c12.512 12.512 12.512 32.736 0 45.248z" />
<glyph unicode="&#xe957;" glyph-name="arrow-left" d="M960 544h-562.752l137.376 137.376c5.789 5.791 9.369 13.789 9.369 22.624s-3.58 16.833-9.369 22.624l-96 96c-5.791 5.789-13.789 9.369-22.624 9.369s-16.833-3.58-22.624-9.369l-352-352c-5.789-5.791-9.369-13.789-9.369-22.624s3.58-16.833 9.369-22.624l352-352c5.791-5.789 13.789-9.369 22.624-9.369s16.833 3.58 22.624 9.369l96 96c5.789 5.791 9.369 13.789 9.369 22.624s-3.58 16.833-9.369 22.624l-137.376 137.376h562.752c17.673 0 32 14.327 32 32v0 128c0 17.673-14.327 32-32 32v0z" />
<glyph unicode="&#xe958;" glyph-name="folder-empty" d="M32 608h960v-64h-960v64zM896 0h-768c-70.4 0-128 57.6-128 128v800h403.2l96-160h524.8v-640c0-70.4-57.6-128-128-128zM64 864v-736c0-35.2 28.8-64 64-64h768c35.2 0 64 28.8 64 64v576h-499.2l-96 160h-300.8z" />
<glyph unicode="&#xe959;" glyph-name="global-empty" d="M188.8 76.8l-25.6 57.6 70.4 32 35.2 54.4-70.4 57.6-41.6 73.6-48 102.4 102.4 121.6 108.8 19.2 3.2 67.2-51.2 64-73.6 83.2 48 41.6 73.6-83.2 67.2-86.4-6.4-137.6-134.4-25.6-64-76.8 64-121.6 108.8-83.2-80-121.6zM662.4 624l-86.4 60.8-19.2 80-51.2 51.2-70.4 51.2v57.6l64 3.2v-25.6l51.2-38.4 64-67.2 19.2-73.6 38.4-25.6 57.6 22.4h86.4l64 41.6 35.2-54.4-80-51.2h-92.8zM531.2 96l-64 128 41.6 96-25.6 89.6 48 128 137.6 25.6 108.8-44.8 76.8-99.2-12.8-108.8-70.4-70.4-57.6-64-70.4-54.4-112-25.6zM537.6 224l28.8-57.6 54.4 9.6 57.6 41.6 51.2 57.6 54.4 54.4 6.4 60.8-51.2 64-76.8 32-83.2-6.4-28.8-73.6 25.6-92.8-38.4-89.6zM512-64c-281.6 0-512 230.4-512 512s230.4 512 512 512 512-230.4 512-512-230.4-512-512-512zM512 896c-246.4 0-448-201.6-448-448s201.6-448 448-448 448 201.6 448 448-201.6 448-448 448z" />
<glyph unicode="&#xe95a;" glyph-name="grid-empty" d="M288 672h-256v256h256v-256zM96 736h128v128h-128v-128zM640 672h-256v256h256v-256zM448 736h128v128h-128v-128zM992 672h-256v256h256v-256zM800 736h128v128h-128v-128zM288 320h-256v256h256v-256zM96 384h128v128h-128v-128zM640 320h-256v256h256v-256zM448 384h128v128h-128v-128zM992 320h-256v256h256v-256zM800 384h128v128h-128v-128zM288-32h-256v256h256v-256zM96 32h128v128h-128v-128zM640-32h-256v256h256v-256zM448 32h128v128h-128v-128zM992-32h-256v256h256v-256zM800 32h128v128h-128v-128z" />
<glyph unicode="&#xe95b;" glyph-name="arrow-up" d="M534.624 918.624c-5.791 5.789-13.789 9.369-22.624 9.369s-16.833-3.58-22.624-9.369l-352-352c-5.789-5.791-9.369-13.789-9.369-22.624s3.58-16.833 9.369-22.624l96-96c5.791-5.789 13.789-9.369 22.624-9.369s16.833 3.58 22.624 9.369l137.376 137.376v-562.752c0-17.673 14.327-32 32-32v0h128c17.673 0 32 14.327 32 32v0 562.752l137.376-137.376c5.791-5.789 13.789-9.369 22.624-9.369s16.833 3.58 22.624 9.369l96 96c5.789 5.791 9.369 13.789 9.369 22.624s-3.58 16.833-9.369 22.624v0z" />
<glyph unicode="&#xe95c;" glyph-name="arrow-down" d="M489.376-22.624c5.791-5.789 13.789-9.369 22.624-9.369s16.833 3.58 22.624 9.369l352 352c5.789 5.791 9.369 13.789 9.369 22.624s-3.58 16.833-9.369 22.624l-96 96c-5.791 5.789-13.789 9.369-22.624 9.369s-16.833-3.58-22.624-9.369l-137.376-137.376v562.752c0 17.673-14.327 32-32 32v0h-128c-17.673 0-32-14.327-32-32v0-562.752l-137.376 137.376c-5.791 5.789-13.789 9.369-22.624 9.369s-16.833-3.58-22.624-9.369l-96-96c-5.789-5.791-9.369-13.789-9.369-22.624s3.58-16.833 9.369-22.624v0z" />
<glyph unicode="&#xe95d;" glyph-name="arrow-right" d="M64 352h562.752l-137.376-137.376c-5.789-5.791-9.369-13.789-9.369-22.624s3.58-16.833 9.369-22.624l96-96c5.791-5.789 13.789-9.369 22.624-9.369s16.833 3.58 22.624 9.369l352 352c5.789 5.791 9.369 13.789 9.369 22.624s-3.58 16.833-9.369 22.624l-352 352c-5.791 5.789-13.789 9.369-22.624 9.369s-16.833-3.58-22.624-9.369l-96-96c-5.789-5.791-9.369-13.789-9.369-22.624s3.58-16.833 9.369-22.624l137.376-137.376h-562.752c-17.673 0-32-14.327-32-32v0-128c0-17.673 14.327-32 32-32v0z" />
<glyph unicode="&#xe95e;" glyph-name="wishlist-empty" d="M512-32l-425.6 425.6c-115.2 115.2-115.2 300.8 0 416s300.8 115.2 416 0c3.2-3.2 6.4-6.4 9.6-9.6 3.2 3.2 6.4 6.4 9.6 9.6 57.6 54.4 131.2 86.4 208 86.4s153.6-32 208-86.4c54.4-54.4 86.4-128 86.4-208s-32-153.6-86.4-208l-425.6-425.6zM294.4 832c-60.8 0-118.4-22.4-163.2-67.2-89.6-89.6-89.6-236.8 0-326.4l380.8-380.8 380.8 380.8c44.8 44.8 67.2 102.4 67.2 163.2s-22.4 118.4-67.2 163.2c-44.8 44.8-102.4 67.2-163.2 67.2s-118.4-22.4-163.2-67.2c-9.6-9.6-19.2-22.4-28.8-35.2l-25.6-41.6-25.6 41.6c-9.6 12.8-19.2 25.6-28.8 35.2-44.8 44.8-105.6 67.2-163.2 67.2z" />
<glyph unicode="&#xe95f;" glyph-name="gift-registry" d="M288 928c0 17.664-14.336 32-32 32s-32-14.336-32-32v-96h64v96zM800 928c0 17.664-14.336 32-32 32s-32-14.336-32-32v-96h64v96zM864 800h-704c-70.688 0-128-57.312-128-128v-576c0-70.688 57.312-128 128-128h704c70.688 0 128 57.312 128 128v576c0 70.688-57.312 128-128 128zM928 96c0-35.36-28.64-64-64-64h-704c-35.36 0-64 28.64-64 64v512h832v-512zM448 128c-8.192 0-16.384 3.136-22.624 9.376l-128 128c-12.512 12.512-12.512 32.736 0 45.248s32.736 12.512 45.248 0l105.376-105.376 297.376 297.376c12.512 12.512 32.736 12.512 45.248 0s12.512-32.736 0-45.248l-320-320c-6.24-6.24-14.432-9.376-22.624-9.376z" />
<glyph unicode="&#xe960;" glyph-name="star-empty" d="M512 832l112.32-227.2 15.68-28.8 32-4.8 250.88-36.48-205.44-200.64 5.44-32 42.88-249.28-224 117.76-29.76 13.76-29.76-15.68-224-117.76 42.88 249.6 5.44 32-24 23.36-181.76 178.24 251.2 36.48 32 5.44 15.040 30.4 112.96 225.6zM512 935.68c-0.185 0.004-0.402 0.006-0.62 0.006-6.029 0-11.669-1.668-16.484-4.567l0.144 0.081c-4.775-2.981-8.658-6.966-11.434-11.681l-0.086-0.159-140.8-285.44-315.2-45.76c-15.719-2.2-27.684-15.557-27.684-31.708 0-9.030 3.74-17.186 9.755-23.004l0.009-0.009 227.84-222.080-53.76-313.92c-0.27-1.562-0.425-3.361-0.425-5.195 0-15.902 11.6-29.096 26.8-31.58l0.185-0.025h5.12c5.481 0.072 10.644 1.363 15.252 3.613l-0.212-0.093 281.6 147.84 281.6-148.16c4.243-2.22 9.268-3.523 14.597-3.523 0.156 0 0.311 0.001 0.467 0.003h-0.024c0.070-0.001 0.152-0.001 0.234-0.001 12.168 0 22.75 6.792 28.162 16.792l0.084 0.169c2.245 4.433 3.561 9.665 3.561 15.204 0 1.749-0.131 3.467-0.384 5.145l0.023-0.189-54.080 313.6 228.16 224c6.024 5.827 9.764 13.983 9.764 23.012 0 16.151-11.965 29.507-27.515 31.688l-0.169 0.019-314.88 44.16-140.8 285.44c-5.59 9.819-15.986 16.333-27.902 16.333-0.316 0-0.63-0.005-0.944-0.014l0.046 0.001z" />
<glyph unicode="&#xe961;" glyph-name="star" d="M1001.28 608l-314.88 47.36-140.8 285.44c-5.521 10.077-16.055 16.796-28.158 16.796-6.553 0-12.646-1.97-17.72-5.35l0.117 0.073c-4.924-2.793-8.926-6.692-11.76-11.377l-0.080-0.143-140.8-285.44-315.2-47.36c-15.638-2.276-27.515-15.593-27.515-31.684 0-1.579 0.114-3.131 0.335-4.649l-0.021 0.173c1.172-7.239 4.625-13.519 9.586-18.227l0.014-0.013 227.84-220.8-53.76-313.92c-0.276-1.577-0.433-3.393-0.433-5.247 0-15.791 11.438-28.911 26.482-31.526l0.191-0.027c1.601-0.284 3.444-0.446 5.325-0.446 5.423 0 10.532 1.349 15.007 3.73l-0.173-0.084 281.92 148.16 283.2-148.16c3.842-1.763 8.335-2.79 13.069-2.79 12.386 0 23.129 7.037 28.447 17.331l0.084 0.179c2.297 4.303 3.646 9.411 3.646 14.835 0 1.881-0.162 3.724-0.474 5.516l0.027-0.191-53.76 313.6 228.16 222.4c5.751 5.784 9.305 13.757 9.305 22.56s-3.555 16.776-9.307 22.562l0.002-0.002c-4.755 4.855-11.035 8.2-18.064 9.258l-0.176 0.022z" />
<glyph unicode="&#xe962;" glyph-name="more-full" d="M224 448c0-53.019-42.981-96-96-96s-96 42.981-96 96c0 53.019 42.981 96 96 96s96-42.981 96-96zM608 448c0-53.019-42.981-96-96-96s-96 42.981-96 96c0 53.019 42.981 96 96 96s96-42.981 96-96zM992 448c0-53.019-42.981-96-96-96s-96 42.981-96 96c0 53.019 42.981 96 96 96s96-42.981 96-96z" />
<glyph unicode="&#xe963;" glyph-name="home-empty" d="M947.2 476.8c-6.4 0-9.6 3.2-16 6.4l-422.4 336-422.4-339.2c-9.6-9.6-25.6-6.4-35.2 3.2s-6.4 25.6 3.2 35.2l454.4 364.8 454.4-364.8c9.6-9.6 12.8-22.4 3.2-35.2-3.2-3.2-12.8-6.4-19.2-6.4zM860.8 3.2h-697.6v435.2c0 12.8 9.6 25.6 25.6 25.6s25.6-9.6 25.6-25.6v-387.2h598.4v387.2c0 12.8 9.6 25.6 25.6 25.6s25.6-9.6 25.6-25.6v-435.2z" />
<glyph unicode="&#xe964;" glyph-name="store-full" d="M1014.624 694.624l-118.624 118.624v114.752c0 17.696-14.336 32-32 32h-704c-17.664 0-32-14.304-32-32v-114.752l-118.624-118.624c-6.016-5.984-9.376-14.112-9.376-22.624v-96c0-17.696 14.336-32 32-32h960c17.664 0 32 14.304 32 32v96c0 8.512-3.36 16.64-9.376 22.624zM928 480h-832v-512c0-17.664 14.336-32 32-32h416v288h192v-288h160c17.664 0 32 14.336 32 32v512zM384 192h-160v160h160v-160z" />
<glyph unicode="&#xe965;" glyph-name="img-empty" d="M886.4 128h-748.8l176 307.2 131.2-131.2 198.4 265.6 243.2-441.6zM246.4 192h531.2l-140.8 262.4-185.6-246.4-124.8 124.8-80-140.8zM400 512c-60.8 0-112 51.2-112 112s51.2 112 112 112 112-51.2 112-112-51.2-112-112-112zM400 672c-25.6 0-48-22.4-48-48s22.4-48 48-48 48 22.4 48 48-22.4 48-48 48zM864-32h-704c-70.4 0-128 57.6-128 128v704c0 70.4 57.6 128 128 128h704c70.4 0 128-57.6 128-128v-704c0-70.4-57.6-128-128-128zM160 864c-35.2 0-64-28.8-64-64v-704c0-35.2 28.8-64 64-64h704c35.2 0 64 28.8 64 64v704c0 35.2-28.8 64-64 64h-704z" />
<glyph unicode="&#xe966;" glyph-name="global-full" d="M847.168 428.384l-64.224 81.856c-3.361 4.165-7.662 7.439-12.589 9.521l-0.211 0.079-92.384 39.104c-3.696 1.587-7.997 2.51-12.515 2.51-2.058 0-4.071-0.192-6.023-0.558l0.201 0.031-109.312-20.352c-11.092-2.124-20.020-9.738-23.957-19.846l-0.075-0.218-37.888-99.648c-1.328-3.382-2.097-7.298-2.097-11.394 0-3.134 0.45-6.162 1.29-9.024l-0.057 0.226 23.264-80.672-36.704-82.176c-1.764-3.843-2.792-8.338-2.792-13.073 0-5.107 1.196-9.934 3.324-14.217l-0.084 0.186 44.992-92.32c5.322-10.716 16.192-17.952 28.752-17.952 0.017 0 0.034 0 0.051 0h-0.003c0.059 0 0.128-0.001 0.197-0.001 2.254 0 4.45 0.245 6.565 0.71l-0.202-0.037 84.192 17.568c4.894 1.005 9.202 3.016 12.877 5.816l-0.077-0.056 64.608 48.704c1.752 1.326 3.293 2.765 4.673 4.348l0.031 0.036 53.056 60 61.12 62.176c4.848 4.938 8.109 11.45 8.946 18.7l0.014 0.148 9.792 86.4c0.123 1.055 0.194 2.278 0.194 3.517 0 7.554-2.618 14.497-6.995 19.971l0.049-0.064zM512 960c-282.77 0-512-229.23-512-512s229.23-512 512-512c282.77 0 512 229.23 512 512v0c-0.346 282.631-229.369 511.654-511.967 512h-0.033zM512 0c-0.013 0-0.029 0-0.045 0-105.398 0-202.247 36.606-278.526 97.799l0.875-0.679 32 14.048c5.767 2.549 10.495 6.557 13.847 11.564l0.073 0.116 58.56 88.832c3.316 4.961 5.292 11.063 5.292 17.627 0 10.269-4.837 19.408-12.357 25.263l-0.072 0.054-84.096 65.216-33.856 60.544-30.272 62.816 63.456 75.008 108.32 20.032c14.367 2.735 25.221 14.779 26.108 29.511l0.004 0.089 5.888 102.624c0.038 0.584 0.060 1.267 0.060 1.954 0 7.561-2.641 14.506-7.051 19.962l0.047-0.060-60.256 75.68-49.056 57.024c46.997 30.609 102.303 52.994 161.689 63.601l2.695 0.399 0.16-5.6c0.33-10.341 5.517-19.404 13.344-25.023l0.096-0.065 57.6-40.96 49.28-51.808 18.528-69.792c2.064-7.549 6.612-13.823 12.694-18.043l0.106-0.069 61.28-42.272c5.078-3.544 11.379-5.663 18.176-5.663 4.264 0 8.334 0.834 12.054 2.348l-0.214-0.077 63.392 25.248 84.736-0.864c0.152-0.003 0.332-0.004 0.512-0.004 6.313 0 12.19 1.863 17.113 5.070l-0.121-0.074 44.8 28.384c44.796-68.497 71.445-152.385 71.445-242.497 0-247.017-200.247-447.264-447.264-447.264-0.367 0-0.734 0-1.101 0.001h0.057z" />
<glyph unicode="&#xe967;" glyph-name="download-empty" d="M896 0h-192v64h192c35.2 0 64 28.8 64 64v576h-499.2l-96 160h-300.8v-736c0-35.2 28.8-64 64-64h192v-64h-192c-70.4 0-128 57.6-128 128v800h403.2l96-160h524.8v-640c0-70.4-57.6-128-128-128zM480 480h64v-448h-64v448zM512-12.8l-204.8 204.8 44.8 44.8 160-160 160 160 44.8-44.8z" />
<glyph unicode="&#xe968;" glyph-name="print-full" d="M224 928v-128h576v128c0 17.664-14.336 32-32 32v0h-512c-17.664 0-32-14.336-32-32v0zM224 416v-448c0-17.664 14.336-32 32-32v0h512c17.664 0 32 14.336 32 32v0 448zM672 64h-320v64h320zM672 224h-320v64h320zM800 736h-576c-123.712 0-224-100.288-224-224v0-320c0-17.664 14.336-32 32-32v0h128v288c0 17.664 14.336 32 32 32v0h640c17.664 0 32-14.336 32-32v0-288h128c17.664 0 32 14.336 32 32v0 320c0 123.712-100.288 224-224 224v0zM768 576c-17.664 0-32 14.336-32 32s14.336 32 32 32c17.664 0 32-14.336 32-32v0c0-17.664-14.336-32-32-32v0z" />
<glyph unicode="&#xe969;" glyph-name="info" d="M512-64c-281.6 0-512 230.4-512 512s230.4 512 512 512 512-230.4 512-512-230.4-512-512-512zM512 896c-246.4 0-448-201.6-448-448s201.6-448 448-448 448 201.6 448 448-201.6 448-448 448zM480 576h64v-416h-64v416zM560 720c0-25.6-22.4-48-48-48s-48 22.4-48 48 22.4 48 48 48c25.6 0 48-22.4 48-48zM512 640c-44.8 0-80 35.2-80 80s35.2 80 80 80c44.8 0 80-35.2 80-80s-35.2-80-80-80zM512 736c-9.6 0-16-6.4-16-16s6.4-16 16-16 16 6.4 16 16-6.4 16-16 16z" />
<glyph unicode="&#xe96a;" glyph-name="expand" d="M960 512h-384v384h-128v-384h-384v-128h384v-384h128v384h384v128z" />
<glyph unicode="&#xe96b;" glyph-name="present-empty" d="M800-32h-576c-70.4 0-128 57.6-128 128v352h64v-352c0-35.2 28.8-64 64-64h576c35.2 0 64 28.8 64 64v352h64v-352c0-70.4-57.6-128-128-128zM1024 512h-1024v224h1024v-224zM64 576h896v96h-896v-96zM553.6 672h-233.6c-70.4 0-128 57.6-128 128s57.6 128 128 128c166.4 0 220.8-208 224-214.4l9.6-41.6zM320 864c-35.2 0-64-28.8-64-64s28.8-64 64-64h147.2c-22.4 51.2-67.2 128-147.2 128zM704 672h-233.6l9.6 41.6c3.2 6.4 57.6 214.4 224 214.4 70.4 0 128-57.6 128-128s-57.6-128-128-128zM556.8 736h147.2c35.2 0 64 28.8 64 64s-28.8 64-64 64c-80 0-124.8-76.8-147.2-128zM640-32h-256v768h256v-768zM448 32h128v640h-128v-640z" />
<glyph unicode="&#xe96c;" glyph-name="locked-empty" d="M736 608h-64v128c0 86.4-73.6 160-160 160s-160-73.6-160-160v-128h-64v128c0 121.6 102.4 224 224 224 124.8 0 224-102.4 224-224v-128zM800-64h-576c-70.4 0-128 57.6-128 128v352c0 70.4 57.6 128 128 128h576c70.4 0 128-57.6 128-128v-352c0-70.4-57.6-128-128-128zM224 480c-35.2 0-64-28.8-64-64v-352c0-35.2 28.8-64 64-64h576c35.2 0 64 28.8 64 64v352c0 35.2-28.8 64-64 64h-576zM480 224h64v-160h-64v160zM512 160c-70.4 0-128 57.6-128 128s57.6 128 128 128c70.4 0 128-57.6 128-128s-57.6-128-128-128zM512 352c-35.2 0-64-28.8-64-64s28.8-64 64-64c35.2 0 64 28.8 64 64s-28.8 64-64 64z" />
<glyph unicode="&#xe96d;" glyph-name="triangle-line-right-full" d="M96 896v-896c0-17.696 14.336-32 32-32s32 14.304 32 32v896c0 17.696-14.336 32-32 32s-32-14.304-32-32zM914.976 473.76l-608 448c-9.696 7.2-22.624 8.224-33.408 2.816-10.784-5.44-17.568-16.512-17.568-28.576v-896c0-12.064 6.784-23.136 17.568-28.576 10.624-5.376 23.616-4.448 33.408 2.816l608 448c8.192 6.048 13.024 15.616 13.024 25.76s-4.832 19.712-13.024 25.76z" />
<glyph unicode="&#xe96e;" glyph-name="pointing-right-full" d="M864 896v-896c0-17.696 14.336-32 32-32s32 14.304 32 32v896c0 17.696-14.336 32-32 32s-32-14.304-32-32zM754.976 473.76l-608 448c-9.696 7.2-22.624 8.224-33.408 2.784s-17.568-16.48-17.568-28.544v-896c0-12.064 6.784-23.136 17.568-28.576 10.624-5.376 23.616-4.448 33.408 2.816l608 448c8.192 6.048 13.024 15.584 13.024 25.76s-4.832 19.712-13.024 25.76z" />
<glyph unicode="&#xe96f;" glyph-name="triangle-line-left-full" d="M928 896v-896c0-17.696-14.336-32-32-32s-32 14.304-32 32v896c0 17.696 14.336 32 32 32s32-14.304 32-32zM109.024 473.76l608 448c9.728 7.232 22.656 8.256 33.408 2.816 10.784-5.44 17.568-16.512 17.568-28.576v-896c0-12.064-6.784-23.136-17.568-28.576-10.624-5.376-23.616-4.448-33.408 2.816l-608 448c-8.192 6.048-13.024 15.616-13.024 25.76s4.832 19.712 13.024 25.76z" />
<glyph unicode="&#xe970;" glyph-name="pointing-left-full" d="M160 896v-896c0-17.696-14.336-32-32-32s-32 14.304-32 32v896c0 17.696 14.336 32 32 32s32-14.304 32-32zM269.024 473.76l608 448c9.728 7.232 22.656 8.256 33.408 2.816 10.784-5.472 17.568-16.512 17.568-28.576v-896c0-12.064-6.784-23.136-17.568-28.576-10.624-5.376-23.616-4.448-33.408 2.816l-608 448c-8.192 6.048-13.024 15.584-13.024 25.76s4.832 19.712 13.024 25.76z" />
<glyph unicode="&#xe971;" glyph-name="marketing-empty" d="M425.6-64c-48 0-89.6 28.8-108.8 73.6l-134.4 329.6 60.8 25.6 134.4-329.6c9.6-19.2 28.8-32 48-32 6.4 0 12.8 0 19.2 3.2 19.2 9.6 32 28.8 32 48 0 6.4 0 12.8-3.2 19.2l-108.8 265.6 60.8 22.4 108.8-265.6c6.4-12.8 9.6-28.8 9.6-44.8 0-48-28.8-89.6-73.6-108.8-12.8-3.2-28.8-6.4-44.8-6.4zM832 140.8l-390.4 179.2h-217.6c-124.8 0-224 99.2-224 224s99.2 224 224 224h217.6l390.4 179.2v-806.4zM224 704c-89.6 0-160-70.4-160-160s70.4-160 160-160h230.4l313.6-140.8v601.6l-313.6-140.8h-230.4zM896 416v64c35.2 0 64 28.8 64 64s-28.8 64-64 64v64c70.4 0 128-57.6 128-128s-57.6-128-128-128z" />
<glyph unicode="&#xe972;" glyph-name="tooltip-menu-empty" d="M320 448c0-35.346-28.654-64-64-64s-64 28.654-64 64c0 35.346 28.654 64 64 64s64-28.654 64-64zM576 448c0-35.346-28.654-64-64-64s-64 28.654-64 64c0 35.346 28.654 64 64 64s64-28.654 64-64zM832 448c0-35.346-28.654-64-64-64s-64 28.654-64 64c0 35.346 28.654 64 64 64s64-28.654 64-64zM512 896c247.424 0 448-200.576 448-448s-200.576-448-448-448c-247.424 0-448 200.576-448 448v0c0 247.424 200.576 448 448 448v0zM512 960c-282.77 0-512-229.23-512-512s229.23-512 512-512c282.77 0 512 229.23 512 512v0c0 282.77-229.23 512-512 512v0z" />
<glyph unicode="&#xe973;" glyph-name="menu" d="M960 480h-896c-19.2 0-32-12.8-32-32s12.8-32 32-32h896c19.2 0 32 12.8 32 32s-12.8 32-32 32zM960 768h-896c-19.2 0-32-12.8-32-32s12.8-32 32-32h896c19.2 0 32 12.8 32 32s-12.8 32-32 32zM960 192h-896c-19.2 0-32-12.8-32-32s12.8-32 32-32h896c19.2 0 32 12.8 32 32s-12.8 32-32 32z" />
<glyph unicode="&#xe974;" glyph-name="tooltip-menu-full" d="M512 960c-282.77 0-512-229.23-512-512s229.23-512 512-512c282.77 0 512 229.23 512 512v0c0 282.77-229.23 512-512 512v0zM256 384c-35.346 0-64 28.654-64 64s28.654 64 64 64c35.346 0 64-28.654 64-64v0c0-35.346-28.654-64-64-64v0zM512 384c-35.346 0-64 28.654-64 64s28.654 64 64 64c35.346 0 64-28.654 64-64v0c0-35.346-28.654-64-64-64v0zM768 384c-35.346 0-64 28.654-64 64s28.654 64 64 64c35.346 0 64-28.654 64-64v0c0-35.346-28.654-64-64-64v0z" />
<glyph unicode="&#xe975;" glyph-name="more-empty" d="M128 320c-70.4 0-128 57.6-128 128s57.6 128 128 128 128-57.6 128-128c0-70.4-57.6-128-128-128zM128 512c-35.2 0-64-28.8-64-64s28.8-64 64-64 64 28.8 64 64c0 35.2-28.8 64-64 64zM512 320c-70.4 0-128 57.6-128 128s57.6 128 128 128c70.4 0 128-57.6 128-128s-57.6-128-128-128zM512 512c-35.2 0-64-28.8-64-64s28.8-64 64-64c35.2 0 64 28.8 64 64s-28.8 64-64 64zM896 320c-70.4 0-128 57.6-128 128s57.6 128 128 128 128-57.6 128-128c0-70.4-57.6-128-128-128zM896 512c-35.2 0-64-28.8-64-64s28.8-64 64-64 64 28.8 64 64c0 35.2-28.8 64-64 64z" />
<glyph unicode="&#xe976;" glyph-name="content-full" d="M0 704v-672c0-17.696 14.336-32 32-32h960c17.664 0 32 14.304 32 32v672h-1024zM544 448h352v-64h-352v64zM544 320h192v-64h-192v64zM448 480v-256c0-17.696-14.336-32-32-32h-256c-17.664 0-32 14.304-32 32v256c0 17.696 14.336 32 32 32h256c17.664 0 32-14.304 32-32zM1024 768v96c0 17.664-14.304 32-32 32h-768v-128h800zM160 896h-128c-17.696 0-32-14.336-32-32v-96h160v128z" />
<glyph unicode="&#xe977;" glyph-name="delivery-full" d="M576 848h-528c-17.673 0-32-14.327-32-32v0-624c0-17.673 14.327-32 32-32v0h64c0 79.529 64.471 144 144 144s144-64.471 144-144v0h192c8.837 0 16 7.163 16 16v0 640c0 17.673-14.327 32-32 32v0zM256 48c-61.856 0-112 50.144-112 112s50.144 112 112 112c61.856 0 112-50.144 112-112v0c-0.082-61.823-50.177-111.918-111.992-112h-0.008zM256 208c-26.51 0-48-21.49-48-48s21.49-48 48-48c26.51 0 48 21.49 48 48v0c0 26.51-21.49 48-48 48v0zM768 48c-61.856 0-112 50.144-112 112s50.144 112 112 112c61.856 0 112-50.144 112-112v0c-0.082-61.823-50.177-111.918-111.992-112h-0.008zM768 208c-26.51 0-48-21.49-48-48s21.49-48 48-48c26.51 0 48 21.49 48 48v0c0 26.51-21.49 48-48 48v0zM1006.4 455.152l-112 224c-2.685 5.288-8.083 8.848-14.313 8.848-0.031 0-0.061 0-0.092 0h-223.995c-8.837 0-16-7.163-16-16v0-446.224c24.446 46.706 72.565 78.031 128 78.031 79.461 0 143.89-64.361 144-143.796v-0.011h80c8.837 0 16 7.163 16 16v0 272c0.001 0.052 0.001 0.114 0.001 0.176 0 2.538-0.591 4.938-1.643 7.070l0.042-0.094zM688 464v176h172.224l88-176z" />
<glyph unicode="&#xe978;" glyph-name="plugin-empty" d="M928 336h-64v316.8l-272 156.8 32 54.4 304-176zM512-32l-304 176 32 54.4 272-156.8 272 156.8 32-54.4zM512 409.6l-400 233.6 32 54.4 368-211.2 368 211.2 32-54.4zM160 336h-64v352l304 176 32-54.4-272-160zM480 448h64v-444.8h-64v444.8zM512 608c-73.6 0-128 35.2-128 80v160h64v-160c3.2-3.2 25.6-16 64-16s60.8 12.8 64 19.2v156.8h64v-160c0-44.8-54.4-80-128-80zM512 768c-73.6 0-128 35.2-128 80s54.4 80 128 80c73.6 0 128-35.2 128-80s-54.4-80-128-80zM451.2 848c6.4-6.4 28.8-16 60.8-16s54.4 9.6 60.8 16c-6.4 6.4-28.8 16-60.8 16s-54.4-9.6-60.8-16zM793.6 137.6l-137.6 80c-12.8 9.6-22.4 22.4-28.8 38.4-9.6 32 0 73.6 22.4 112 38.4 64 92.8 92.8 134.4 70.4l137.6-80-32-54.4-137.6 80c-3.2 0-25.6-12.8-44.8-48-19.2-32-19.2-60.8-16-64l137.6-76.8-35.2-57.6zM230.4 137.6l-32 54.4 137.6 80c0 3.2 0 28.8-19.2 64-19.2 32-44.8 48-48 48l-137.6-80-32 54.4 137.6 80c22.4 12.8 51.2 9.6 76.8-9.6 22.4-12.8 41.6-35.2 57.6-64 38.4-64 35.2-128-6.4-150.4l-134.4-76.8zM201.6 128c-16 0-32 6.4-48 16-22.4 12.8-41.6 35.2-57.6 64-38.4 64-35.2 128 6.4 150.4 22.4 12.8 51.2 9.6 76.8-9.6 22.4-12.8 41.6-35.2 57.6-64v0c38.4-64 35.2-128-6.4-150.4-9.6-3.2-19.2-6.4-28.8-6.4zM134.4 300.8c-3.2-9.6 0-32 16-60.8s35.2-41.6 44.8-44.8c3.2 9.6 0 32-16 60.8s-35.2 41.6-44.8 44.8zM822.4 128c-9.6 0-19.2 3.2-28.8 6.4-12.8 9.6-22.4 22.4-28.8 38.4-9.6 32 0 73.6 22.4 112 38.4 64 92.8 92.8 134.4 70.4 22.4-12.8 32-38.4 32-70.4 0-25.6-9.6-54.4-25.6-80-28.8-44.8-70.4-76.8-105.6-76.8zM889.6 300.8c-9.6-3.2-28.8-16-44.8-44.8s-19.2-51.2-16-60.8c9.6 3.2 28.8 16 44.8 44.8s19.2 51.2 16 60.8z" />
<glyph unicode="&#xe979;" glyph-name="save-full" d="M982.624 726.624l-192 192c-5.79 5.791-13.788 9.374-22.624 9.376h-96v-224c0-17.673-14.327-32-32-32v0h-416c-17.673 0-32 14.327-32 32v0 224h-32c-70.692 0-128-57.308-128-128v0-704c0-70.692 57.308-128 128-128v0h704c70.692 0 128 57.308 128 128v0 608c-0.002 8.836-3.585 16.834-9.376 22.624v0zM832 160c0-17.673-14.327-32-32-32v0h-576c-17.673 0-32 14.327-32 32v0 160c0 17.673 14.327 32 32 32v0h576c17.673 0 32-14.327 32-32v0zM480 928h96v-192h-96v192z" />
<glyph unicode="&#xe97a;" glyph-name="pointing-right-empty" d="M832 928h64v-960h-64v960zM128-32v960l662.4-480-662.4-480zM192 800v-704l489.6 352-489.6 352z" />
<glyph unicode="&#xe97b;" glyph-name="remove-circled-full" d="M512 960c-282.77 0-512-229.23-512-512s229.23-512 512-512c282.77 0 512 229.23 512 512v0c-0.853 282.427-229.574 511.148-511.919 512h-0.081zM771.872 256l-67.872-67.872-192 192-192-192-67.872 67.872 192 192-192 192 67.872 67.872 192-192 192 192 67.872-67.872-192-192z" />
<glyph unicode="&#xe97c;" glyph-name="compare-full" d="M512 928v-160h160l-160 160zM454.4 739.2v220.8h-368c-12.8 0-22.4-9.6-22.4-22.4v-659.2c0-12.8 9.6-22.4 22.4-22.4h329.6v201.6l-48-41.6-51.2 44.8 57.6 51.2h-214.4v64h214.4l-57.6 51.2 51.2 44.8 48-41.6v9.6h256v99.2h-217.6zM864 672v-160h160l-160 160zM806.4 704h-368c-12.8 0-22.4-9.6-22.4-22.4v-659.2c0-12.8 9.6-22.4 22.4-22.4h563.2c12.8 0 22.4 9.6 22.4 22.4v460.8h-217.6v220.8zM739.2 236.8l-51.2-44.8-144 128 144 128 51.2-44.8-57.6-51.2h214.4v-64h-214.4l57.6-51.2z" />
<glyph unicode="&#xe97d;" glyph-name="print-empty" d="M1024 160h-256v64h192v384c0 35.2-28.8 64-64 64h-768c-35.2 0-64-28.8-64-64v-384h192v-64h-256v448c0 70.4 57.6 128 128 128h768c70.4 0 128-57.6 128-128v-448zM352 320h320v-64h-320v64zM352 160h320v-64h-320v64zM832 800h-64v96h-512v-96h-64v160h640zM832-64h-640v544h640v-544zM256 0h512v416h-512v-416z" />
<glyph unicode="&#xe97e;" glyph-name="contact-adress-full" d="M992 864h-192c-17.664 0-32-14.336-32-32 0-35.296-28.704-64-64-64s-64 28.704-64 64c0 17.664-14.336 32-32 32h-192c-17.664 0-32-14.336-32-32 0-35.296-28.704-64-64-64s-64 28.704-64 64c0 17.664-14.336 32-32 32h-192c-17.664 0-32-14.336-32-32v-768c0-17.664 14.336-32 32-32h960c17.664 0 32 14.336 32 32v768c0 17.664-14.336 32-32 32zM320 576c35.36 0 64-28.64 64-64s-28.64-64-64-64-64 28.64-64 64c0 35.36 28.64 64 64 64zM160 256c0 70.688 57.312 128 128 128h64c70.688 0 128-57.312 128-128h-320zM864 288h-288v64h288v-64zM864 448h-288v64h288v-64z" />
<glyph unicode="&#xe97f;" glyph-name="products-empty" d="M255.784 763.265l29.581 56.755 502.284-261.79-29.581-56.755-502.284 261.79zM544 380.8l-524.8 262.4 25.6 57.6 499.2-249.6 435.2 217.6 25.6-57.6zM512 416h64v-416h-64v416zM544-35.2l-544 272v454.4l480 240 544-272v-454.4l-480-240zM64 275.2l480-240 416 208v377.6l-480 240-416-208v-377.6z" />
<glyph unicode="&#xe980;" glyph-name="help" d="M512-64c-281.6 0-512 230.4-512 512s230.4 512 512 512 512-230.4 512-512-230.4-512-512-512zM512 896c-246.4 0-448-201.6-448-448s201.6-448 448-448 448 201.6 448 448-201.6 448-448 448zM560 176c0-25.6-22.4-48-48-48s-48 22.4-48 48 22.4 48 48 48c25.6 0 48-22.4 48-48zM512 96c-44.8 0-80 35.2-80 80s35.2 80 80 80c44.8 0 80-35.2 80-80s-35.2-80-80-80zM512 192c-9.6 0-16-6.4-16-16s6.4-16 16-16 16 6.4 16 16-6.4 16-16 16zM544 320h-64v32c0 60.8 35.2 102.4 102.4 156.8 22.4 19.2 92.8 86.4 48 153.6-28.8 44.8-124.8 51.2-204.8 16l-28.8-12.8-25.6 57.6 28.8 12.8c99.2 44.8 233.6 41.6 284.8-41.6 44.8-73.6 22.4-166.4-60.8-236.8-67.2-54.4-80-76.8-80-105.6v-32z" />
<glyph unicode="&#xe981;" glyph-name="recover-empty" d="M215.932 820.557l45.254 45.254 187.806-187.806-45.254-45.254-187.806 187.806zM94.774 697.451l45.254 45.254 187.806-187.806-45.254-45.254-187.806 187.806zM696.743 556.256l187.806 187.806 45.254-45.254-187.806-187.806-45.254 45.254zM573.635 677.414l187.806 187.806 45.254-45.254-187.806-187.806-45.254 45.254zM574.988 218.042l45.248 45.261 187.832-187.779-45.248-45.261-187.832 187.779zM696.169 341.057l45.261 45.248 187.779-187.832-45.261-45.248-187.779 187.832zM94.182 197.193l187.806 187.806 45.254-45.254-187.806-187.806-45.254 45.254zM217.289 76.035l187.806 187.806 45.254-45.254-187.806-187.806-45.254 45.254zM512-64c-131.2 0-262.4 51.2-361.6 150.4-198.4 198.4-198.4 524.8 0 723.2s524.8 198.4 723.2 0v0c198.4-198.4 198.4-524.8 0-723.2-99.2-99.2-230.4-150.4-361.6-150.4zM512 896c-115.2 0-230.4-44.8-316.8-131.2-176-176-176-457.6 0-633.6s457.6-176 633.6 0c176 176 176 457.6 0 633.6-86.4 86.4-201.6 131.2-316.8 131.2zM512 192c-64 0-131.2 25.6-182.4 73.6-48 51.2-73.6 115.2-73.6 182.4s25.6 131.2 73.6 182.4c99.2 99.2 262.4 99.2 361.6 0v0c99.2-99.2 99.2-262.4 0-361.6-48-51.2-115.2-76.8-179.2-76.8zM512 640c-48 0-99.2-19.2-134.4-57.6-38.4-35.2-57.6-83.2-57.6-134.4s19.2-99.2 57.6-134.4c73.6-73.6 195.2-73.6 272 0 73.6 73.6 73.6 195.2 0 272-38.4 35.2-89.6 54.4-137.6 54.4z" />
<glyph unicode="&#xe982;" glyph-name="cart" d="M352 32c0-53.024-42.976-96-96-96s-96 42.976-96 96c0 53.024 42.976 96 96 96s96-42.976 96-96zM960 32c0-53.024-42.976-96-96-96s-96 42.976-96 96c0 53.024 42.976 96 96 96s96-42.976 96-96zM896 192h-672c-15.84 0-29.312 11.584-31.648 27.264l-91.904 612.736h-100.448v64h128c15.84 0 29.312-11.584 31.648-27.264l19.904-132.736h812.448c9.6 0 18.656-4.288 24.736-11.712s8.512-17.152 6.624-26.56l-96-480c-2.976-14.976-16.096-25.728-31.36-25.728zM813.248 800l-150.624 150.624c-12.512 12.512-32.736 12.512-45.248 0l-57.376-57.376-57.376 57.376c-12.512 12.512-32.736 12.512-45.248 0l-150.624-150.624h506.496z" />
<glyph unicode="&#xe983;" glyph-name="trash-full" d="M992 832h-268.224l-54.976 110.304c-5.37 10.576-16.166 17.696-28.625 17.696-0.061 0-0.123 0-0.184-0.001h-255.991c-0.004 0-0.010 0-0.015 0-12.459 0-23.255-7.121-28.541-17.514l-0.084-0.182-55.136-110.304h-268.224c-17.673 0-32-14.327-32-32v0-64c0-17.673 14.327-32 32-32v0h960c17.673 0 32 14.327 32 32v0 64c0 17.673-14.327 32-32 32v0zM128 640v-576c-0.005-0.411-0.008-0.897-0.008-1.384 0-69.933 56.691-126.624 126.624-126.624 0.486 0 0.972 0.003 1.457 0.008l-0.074-0.001h512c0.411-0.005 0.897-0.008 1.384-0.008 69.933 0 126.624 56.691 126.624 126.624 0 0.486-0.003 0.972-0.008 1.457l0.001-0.074v576zM352 128h-64v320h64zM544 128h-64v320h64zM736 128h-64v320h64z" />
<glyph unicode="&#xe984;" glyph-name="remove-circled-empty" d="M274.408 255.669l429.917 429.917 45.254-45.254-429.917-429.917-45.254 45.254zM274.408 640.331l45.254 45.254 429.917-429.917-45.254-45.254-429.917 429.917zM512-64c-281.6 0-512 230.4-512 512s230.4 512 512 512 512-230.4 512-512-230.4-512-512-512zM512 896c-246.4 0-448-201.6-448-448s201.6-448 448-448 448 201.6 448 448-201.6 448-448 448z" />
<glyph unicode="&#xe985;" glyph-name="settings" d="M983.52 297.6l-103.52 76.224c4.7 22.31 7.392 47.945 7.392 74.208s-2.691 51.899-7.813 76.644l0.422-2.436 103.52 76.16c7.911 5.894 12.979 15.222 12.979 25.733 0 5.837-1.563 11.309-4.293 16.021l0.082-0.154-73.888 128c-5.631 9.652-15.937 16.034-27.733 16.034-4.647 0-9.062-0.99-13.046-2.772l0.203 0.081-117.92-51.744c-35.919 31.875-78.534 57.134-125.371 73.352l-2.629 0.792-14.304 127.776c-1.833 16.093-15.373 28.48-31.806 28.48-0.012 0-0.024 0-0.036 0h-147.358c-0.058 0-0.126 0.001-0.194 0.001-16.433 0-29.973-12.387-31.792-28.333l-0.014-0.147-14.208-128c-49.466-17.010-92.081-42.269-128.387-74.481l0.387 0.337-118.144 51.872c-3.766 1.684-8.161 2.665-12.785 2.665-11.747 0-22.015-6.329-27.581-15.764l-0.081-0.149-73.888-128c-2.648-4.558-4.211-10.030-4.211-15.867 0-10.511 5.068-19.839 12.894-25.673l0.085-0.060 103.52-76.224c-4.7-22.319-7.392-47.965-7.392-74.24s2.691-51.921 7.813-76.677l-0.422 2.437-103.488-76.096c-7.924-5.893-13.001-15.228-13.001-25.75 0-5.83 1.559-11.296 4.283-16.004l-0.082 0.154 73.888-128c5.636-9.631 15.93-15.998 27.711-15.998 4.642 0 9.054 0.989 13.036 2.767l-0.203-0.081 117.952 51.712c35.919-31.875 78.534-57.134 125.371-73.352l2.629-0.792 14.208-128c1.937-15.989 15.426-28.258 31.78-28.258 0.111 0 0.222 0.001 0.333 0.002h147.503c0.001 0 0.001 0 0.002 0 16.433 0 29.973 12.387 31.792 28.333l0.014 0.147 14.208 128c49.468 16.985 92.086 42.235 128.386 74.448l-0.386-0.336 118.048-51.776c3.767-1.685 8.164-2.667 12.79-2.667 11.721 0 21.971 6.302 27.545 15.703l0.081 0.148 73.6 128c2.701 4.594 4.297 10.119 4.297 16.017 0 10.423-4.983 19.682-12.697 25.525l-0.080 0.058zM512 288c-88.366 0-160 71.634-160 160s71.634 160 160 160c88.366 0 160-71.634 160-160v0c0-88.366-71.634-160-160-160v0z" />
<glyph unicode="&#xe986;" glyph-name="compare-empty" d="M672 736h-224v192h49.792v-149.344h142.208l32-42.656zM64 256h352v44h-308.576v616h360.448l160.672-162.816v-49.184h43.424v66.816l-186.752 189.184h-421.248v-704zM317.472 461.408l50.944-45.408 47.584 42.4v171.168l-47.584 42.4-50.944-45.408 57.888-51.616h-215.36v-61.92h215.36l-57.888-51.616zM1024 480h-224v192h49.792v-149.344h142.208l32-42.656zM1024 0h-608v704h421.248l186.752-189.184v-514.784zM459.424 44h521.152v453.184l-160.672 162.816h-360.448v-616zM687.584 192l50.944 45.408-57.888 51.616h215.36v61.92h-215.36l57.888 51.616-50.944 45.408-143.584-128 143.584-128z" />
<glyph unicode="&#xe987;" glyph-name="user-group-full" d="M288 768c0-53.019-42.981-96-96-96s-96 42.981-96 96c0 53.019 42.981 96 96 96s96-42.981 96-96zM224 160v320c0 47.328 14.848 91.2 40 127.424-2.656 0.16-5.312 0.576-8 0.576h-128c-70.592 0-128-57.408-128-128v-192h64v-224h224v96h-64zM928 768c0-53.019-42.981-96-96-96s-96 42.981-96 96c0 53.019 42.981 96 96 96s96-42.981 96-96zM800 160v320c0 47.328-14.848 91.2-40 127.424 2.656 0.16 5.312 0.576 8 0.576h128c70.592 0 128-57.408 128-128v-192h-64v-224h-224v96h64zM576 640h-128c-88.224 0-160-71.776-160-160v-256h96v-256h256v256h96v256c0 88.224-71.776 160-160 160zM640 832c0-70.692-57.308-128-128-128s-128 57.308-128 128c0 70.692 57.308 128 128 128s128-57.308 128-128z" />
<glyph unicode="&#xe988;" glyph-name="camera-image-full" d="M96 896h160v-64h-160v64zM896 768h-109.888l-96 160h-292.224l-96-160h-173.888c-70.692 0-128-57.308-128-128v0-512c0-70.692 57.308-128 128-128v0h768c70.692 0 128 57.308 128 128v0 512c0 70.692-57.308 128-128 128v0zM176 544c-26.51 0-48 21.49-48 48s21.49 48 48 48c26.51 0 48-21.49 48-48v0c0-26.51-21.49-48-48-48v0zM544 160c-123.712 0-224 100.288-224 224s100.288 224 224 224c123.712 0 224-100.288 224-224v0c0-123.712-100.288-224-224-224v0z" />
<glyph unicode="&#xe989;" glyph-name="alert-empty" d="M992-32h-960v960h960v-960zM96 32h832v832h-832v-832zM480 768h64v-448h-64v448zM560 176c0-25.6-22.4-48-48-48s-48 22.4-48 48 22.4 48 48 48c25.6 0 48-22.4 48-48zM512 96c-44.8 0-80 35.2-80 80s35.2 80 80 80c44.8 0 80-35.2 80-80s-35.2-80-80-80zM512 192c-9.6 0-16-6.4-16-16s6.4-16 16-16 16 6.4 16 16-6.4 16-16 16z" />
<glyph unicode="&#xe98a;" glyph-name="refresh" d="M960 480c-17.673 0-32-14.327-32-32v0c0.001-0.396 0.002-0.865 0.002-1.334 0-230.493-186.851-417.344-417.344-417.344s-417.344 186.851-417.344 417.344c0 230.493 186.851 417.344 417.344 417.344 109.622 0 209.373-42.265 283.846-111.388l-0.264 0.242-85.568-85.536c-2.898-2.896-4.691-6.898-4.691-11.319 0-7.469 5.117-13.742 12.037-15.505l0.111-0.024 256-64c1.163-0.302 2.497-0.476 3.873-0.476 8.837 0 16 7.163 16 16 0 0.619-0.035 1.229-0.103 1.829l0.007-0.073-32 288c-0.89 8.073-7.673 14.296-15.909 14.296-4.423 0-8.427-1.795-11.323-4.695v0l-93.248-93.312c-85.364 79.698-200.343 128.63-326.752 128.63-264.726 0-479.328-214.602-479.328-479.328s214.602-479.328 479.328-479.328c264.726 0 479.328 214.602 479.328 479.328 0 0.228 0 0.456 0 0.685v-0.035c0 17.673-14.327 32-32 32v0z" />
<glyph unicode="&#xe98b;" glyph-name="save-empty" d="M672 576h-480v224h64v-160h352v160h64zM832 96h-64v224h-512v-224h-64v288h640zM864-32h-704c-70.4 0-128 57.6-128 128v704c0 70.4 57.6 128 128 128h620.8l211.2-211.2v-620.8c0-70.4-57.6-128-128-128zM160 864c-35.2 0-64-28.8-64-64v-704c0-35.2 28.8-64 64-64h704c35.2 0 64 28.8 64 64v595.2l-172.8 172.8h-595.2z" />
<glyph unicode="&#xe98c;" glyph-name="update" d="M64 416c17.673 0 32 14.327 32 32v0c0 0.17 0 0.373 0 0.575 0 229.432 185.992 415.424 415.424 415.424 109.376 0 208.88-42.27 283.066-111.365l-0.25 0.23-85.568-85.536c-2.898-2.896-4.691-6.898-4.691-11.319 0-7.469 5.117-13.742 12.037-15.505l0.111-0.024 256-64c1.163-0.302 2.497-0.476 3.873-0.476 8.837 0 16 7.163 16 16 0 0.619-0.035 1.229-0.103 1.829l0.007-0.073-32 288c-0.89 8.073-7.673 14.296-15.909 14.296-4.423 0-8.427-1.795-11.323-4.695v0l-93.184-93.248c-85.538 80.465-201.059 129.907-328.128 129.907-264.743 0-479.36-214.617-479.36-479.36 0-0.232 0-0.463 0-0.694v0.036c0-17.673 14.327-32 32-32v0zM960 480c-17.673 0-32-14.327-32-32v0c0-0.17 0-0.373 0-0.575 0-229.432-185.992-415.424-415.424-415.424-109.376 0-208.88 42.27-283.066 111.365l0.25-0.23 85.568 85.536c2.898 2.896 4.691 6.898 4.691 11.319 0 7.469-5.117 13.742-12.037 15.505l-0.111 0.024-256 64c-1.163 0.302-2.497 0.476-3.873 0.476-8.837 0-16-7.163-16-16 0-0.619 0.035-1.229 0.103-1.829l-0.007 0.073 32-288c0.89-8.073 7.673-14.296 15.909-14.296 4.423 0 8.427 1.795 11.323 4.695v0l93.184 93.216c85.538-80.465 201.059-129.907 328.128-129.907 264.743 0 479.36 214.617 479.36 479.36 0 0.243 0 0.485-0.001 0.728v-0.037c0 17.673-14.327 32-32 32v0z" />
<glyph unicode="&#xe98d;" glyph-name="undo" d="M539.456 572.032c-104.805-0.504-203.798-24.881-291.979-67.964l3.979 1.756-96.32 151.36c-5.775 8.94-15.69 14.775-26.968 14.775-14.371 0-26.53-9.473-30.571-22.516l-0.060-0.227-96-319.424c-0.864-2.763-1.361-5.941-1.361-9.234 0-16.484 12.464-30.058 28.483-31.809l0.143-0.013 320-32.736c0.478-0.030 1.037-0.047 1.6-0.047s1.122 0.017 1.676 0.051l-0.076-0.004c0.004 0 0.009 0 0.013 0 17.673 0 32 14.327 32 32 0 6.378-1.866 12.32-5.082 17.31l0.076-0.126-93.12 146.336c74.778 35.671 162.517 56.505 255.121 56.505 167.41 0 318.917-68.087 428.341-178.079l0.026-0.026c5.749-5.558 13.59-8.983 22.231-8.983 17.673 0 32 14.327 32 32 0 8.641-3.425 16.482-8.991 22.24l0.009-0.009c-121.86 121.21-289.69 196.307-475.061 196.864h-0.107z" />
<glyph unicode="&#xe98e;" glyph-name="document-full" d="M928 192h-224v-224l224 224zM960 256v672c0 17.664-14.336 32-32 32v0h-832c-17.664 0-32-14.336-32-32v0-960c0-17.664 14.336-32 32-32v0h544v320zM256 256h256v-64h-256zM768 640h-512v64h512zM768 416h-512v64h512z" />
<glyph unicode="&#xe98f;" glyph-name="search" d="M973.248 77.248l-244.608 244.608c44.64 62.048 71.36 139.584 71.36 223.36 0 212.736-172.48 385.216-385.216 385.216s-385.216-172.48-385.216-385.216c0-212.736 172.48-385.216 385.216-385.216 83.776 0 161.28 26.752 224.512 72.16l-1.152-0.8 244.608-244.608zM96 544c0 176.736 143.264 320 320 320s320-143.264 320-320c0-176.736-143.264-320-320-320v0c-176.64 0.192-319.808 143.36-320 319.968v0.032z" />
<glyph unicode="&#xe990;" glyph-name="folder-full" d="M1024 608v128c0 17.673-14.327 32-32 32v0h-493.888l-86.688 144.48c-5.695 9.361-15.84 15.518-27.424 15.52h-352c-17.673 0-32-14.327-32-32v0-288zM0 544v-416c0-70.692 57.308-128 128-128v0h768c70.692 0 128 57.308 128 128v0 416z" />
<glyph unicode="&#xe991;" glyph-name="store-empty" d="M128 800h768v-64h-768v64zM480 160h-256v256h256v-256zM288 224h128v128h-128v-128zM928-64h-192v288h-128v-288h-512v640h64v-576h384v288h256v-288h64v576h64zM1024 512h-1024v140.8l128 128v179.2h768v-179.2l128-128v-140.8zM64 576h896v51.2l-128 128v140.8h-640v-140.8l-128-128v-51.2z" />
<glyph unicode="&#xe992;" glyph-name="settings-empty" d="M512 288c-89.6 0-160 70.4-160 160s70.4 160 160 160 160-70.4 160-160-70.4-160-160-160zM512 544c-54.4 0-96-41.6-96-96s41.6-96 96-96 96 41.6 96 96-41.6 96-96 96zM636.8-64h-249.6l-16 156.8c-35.2 12.8-67.2 32-96 54.4l-144-64-124.8 217.6 124.8 92.8c-3.2 16-3.2 35.2-3.2 54.4s0 38.4 3.2 54.4l-124.8 92.8 124.8 217.6 144-64c28.8 22.4 60.8 41.6 96 54.4l16 156.8h249.6l16-156.8c35.2-12.8 67.2-32 96-54.4l144 64 124.8-217.6-124.8-92.8c3.2-16 3.2-35.2 3.2-54.4v0c0-19.2 0-38.4-3.2-54.4l124.8-92.8-124.8-217.6-144 64c-28.8-22.4-60.8-41.6-96-54.4l-16-156.8zM444.8 0h134.4l16 137.6 19.2 6.4c35.2 12.8 67.2 28.8 96 51.2l16 12.8 22.4-22.4 12.8 28.8 108.8-48 67.2 115.2-112 83.2 3.2 19.2c3.2 19.2 6.4 41.6 6.4 64 0 12.8 0 25.6-3.2 38.4l-6.4 25.6c0 0 0 0 0 0l28.8 6.4-16 25.6 96 70.4-67.2 115.2-128-57.6-16 12.8c-32 28.8-67.2 48-105.6 64l-19.2 6.4-3.2 22.4-16 118.4h-134.4l-16-137.6-19.2-6.4c-41.6-12.8-76.8-35.2-108.8-64l-22.4 22.4-12.8-28.8-108.8 48-67.2-115.2 112-83.2-3.2-19.2c-3.2-19.2-6.4-41.6-6.4-64 0-16 0-28.8 3.2-44.8l3.2-19.2c0 0 0 0 0 0l-28.8-6.4 16-25.6-96-70.4 67.2-115.2 128 54.4 16-12.8c32-28.8 67.2-48 105.6-64l19.2-6.4 3.2-22.4 16-115.2zM864 448v0 0z" />
<glyph unicode="&#xe993;" glyph-name="plugin-full" d="M200.352 129.504c-17.988 0.596-34.487 6.5-48.112 16.183l0.272-0.183c-23.181 16.403-42.069 37.306-55.707 61.557l-0.485 0.939c-13.943 22.926-23.233 50.139-25.867 79.273l-0.053 0.727c-0.512 3.236-0.804 6.969-0.804 10.769 0 24.976 12.627 47.003 31.846 60.044l0.254 0.162c8.669 4.93 19.045 7.836 30.1 7.836 6.385 0 12.544-0.969 18.337-2.769l-0.437 0.117c37.357-14.161 67.181-41.060 84.773-75.28l0.411-0.88c13.961-22.923 23.272-50.134 25.93-79.268l0.054-0.732c0.514-3.242 0.807-6.981 0.807-10.789 0-24.964-12.615-46.981-31.818-60.025l-0.253-0.162c-8.211-4.732-18.058-7.524-28.556-7.524-0.243 0-0.486 0.001-0.729 0.004h0.037zM117.76 331.136v0zM480-13.888v387.968c0 0.018 0 0.040 0 0.062 0 35.346-19.103 66.231-47.547 82.893l-0.453 0.245-336 193.952v-225.856c10.459 3.247 22.488 5.138 34.952 5.184h0.024c12.534-0.031 24.652-1.758 36.154-4.963l-0.954 0.227c54.225-18.446 97.813-56.089 123.557-104.644l0.571-1.18c18.675-30.993 31.045-67.775 34.4-107.13l0.064-0.934c0.383-3.904 0.601-8.439 0.601-13.025 0-38.905-15.705-74.143-41.12-99.719l0.007 0.007zM794.4 137.152c-19.456 13.206-32.071 35.224-32.071 60.187 0 3.807 0.293 7.546 0.859 11.195l-0.052-0.406c2.733 29.822 12.041 56.986 26.454 80.705l-0.47-0.833c18.084 35.090 47.999 61.954 84.362 75.675l1.078 0.357c5.356 1.683 11.515 2.652 17.9 2.652 11.055 0 21.431-2.906 30.407-7.996l-0.306 0.16c19.33-13.223 31.85-35.168 31.85-60.038 0-3.815-0.295-7.561-0.862-11.217l0.052 0.407c-6.426-58.724-37.1-109.221-81.644-141.941l-0.564-0.395c-13.396-9.529-29.956-15.437-47.864-15.997l-0.136-0.003c-0.147-0.001-0.321-0.002-0.496-0.002-10.474 0-20.3 2.779-28.779 7.64l0.283-0.149zM906.080 331.136v0zM544-13.888v387.968c0 0.018 0 0.040 0 0.062 0 35.346 19.103 66.231 47.547 82.893l0.453 0.245 336 193.952v-225.856c-10.459 3.247-22.488 5.138-34.952 5.184h-0.024c-12.534-0.031-24.652-1.758-36.154-4.963l0.954 0.227c-54.225-18.446-97.813-56.089-123.557-104.644l-0.571-1.18c-18.675-30.993-31.045-67.775-34.4-107.13l-0.064-0.934c-0.383-3.904-0.601-8.439-0.601-13.025 0-38.905 15.705-74.143 41.12-99.719l-0.007 0.007zM700.608 819.456c-16.224-68.32-90.496-115.456-188.608-115.456s-172.384 47.136-188.608 115.456l-195.392-112.8 336-194.016c13.769-8.086 30.327-12.862 48-12.862s34.231 4.776 48.453 13.107l-0.453-0.245 336 194.016zM512 768c-74.176 0-128 33.664-128 80s53.824 80 128 80 128-33.664 128-80-53.824-80-128-80zM576.544 845.344v0z" />
<glyph unicode="&#xe994;" glyph-name="time-empty" d="M480 928h64v-160h-64v160zM832 480h160v-64h-160v64zM480 128h64v-160h-64v160zM32 480h160v-64h-160v64zM512-64c-281.6 0-512 230.4-512 512s230.4 512 512 512 512-230.4 512-512-230.4-512-512-512zM512 896c-246.4 0-448-201.6-448-448s201.6-448 448-448 448 201.6 448 448-201.6 448-448 448zM736 416h-240l-220.8 294.4 51.2 38.4 201.6-268.8h208z" />
<glyph unicode="&#xe995;" glyph-name="tools-utilities-empty" d="M825.6-64c-44.8 0-86.4 16-118.4 48l-182.4 182.4 44.8 44.8 182.4-182.4c38.4-38.4 108.8-38.4 147.2 0 19.2 19.2 32 44.8 32 73.6s-9.6 54.4-32 73.6l-192 192 44.8 44.8 192-192c32-32 48-73.6 48-118.4s-16-86.4-48-118.4c-32-32-73.6-48-118.4-48zM345.6 441.6l-326.4 326.4 140.8 140.8 329.6-329.6-44.8-44.8-284.8 284.8-51.2-51.2 281.6-281.6zM192-64c-25.6 0-51.2 9.6-67.2 28.8l-96 96c-19.2 19.2-28.8 41.6-28.8 67.2s12.8 51.2 32 70.4l518.4 473.6c-3.2 16-6.4 32-6.4 48 0 131.2 108.8 240 240 240 28.8 0 54.4-3.2 80-12.8l48-19.2-128-128 80-83.2 92.8 92.8 22.4-22.4 32 9.6c9.6-22.4 12.8-48 12.8-76.8 0-131.2-108.8-240-240-240-16 0-32 3.2-48 6.4l-470.4-518.4c-19.2-19.2-44.8-32-73.6-32zM585.6 659.2l19.2-22.4-531.2-483.2c-6.4-6.4-9.6-16-9.6-25.6s3.2-16 9.6-22.4l96-96c12.8-12.8 32-12.8 44.8 0l499.2 547.2 19.2-6.4c16-3.2 32-6.4 48-6.4 96 0 176 80 176 176 0 0 0 3.2 0 3.2l-96-96-169.6 172.8 96 96c-96 0-179.2-76.8-179.2-176 0-12.8 3.2-28.8 6.4-41.6l3.2-9.6c0 0 0 0 0 0l-32-9.6z" />
<glyph unicode="&#xe996;" glyph-name="unlocked-full" d="M864 544h-704c-35.346 0-64-28.654-64-64v0-480c0-35.346 28.654-64 64-64v0h704c35.346 0 64 28.654 64 64v0 480c0 35.346-28.654 64-64 64v0zM544 164.544v-100.544h-64v100.544c-55.647 14.719-96 64.615-96 123.935 0 70.692 57.308 128 128 128s128-57.308 128-128c0-59.321-40.353-109.217-95.107-123.734l-0.893-0.201zM512 960c-123.456-0.632-223.368-100.543-224-223.939v-128.061h64v128c0 88.366 71.634 160 160 160s160-71.634 160-160v0h64c-0.65 123.449-100.551 223.35-223.938 224h-0.062z" />
<glyph unicode="&#xe997;" glyph-name="pointer-left-empty" d="M800-32l-662.4 480 662.4 480v-960zM246.4 448l489.6-352v704l-489.6-352z" />
<glyph unicode="&#xe998;" glyph-name="triangle-line-left-empty" d="M736-32l-627.2 480 627.2 480v-960zM211.2 448l460.8-352v704l-460.8-352zM832 928h64v-960h-64v960z" />
<glyph unicode="&#xe999;" glyph-name="triangle-line-right-empty" d="M288-32v960l627.2-480-627.2-480zM352 800v-704l460.8 352-460.8 352zM128 928h64v-960h-64v960z" />
<glyph unicode="&#xe99a;" glyph-name="unlocked-empty" d="M352 512h-64v224c0 121.6 102.4 224 224 224 124.8 0 224-102.4 224-224h-64c0 89.6-73.6 160-160 160s-160-73.6-160-160v-224zM928-64h-832v608h832v-608zM160 0h704v480h-704v-480zM480 224h64v-160h-64v160zM512 160c-70.4 0-128 57.6-128 128s57.6 128 128 128c70.4 0 128-57.6 128-128s-57.6-128-128-128zM512 352c-35.2 0-64-28.8-64-64s28.8-64 64-64c35.2 0 64 28.8 64 64s-28.8 64-64 64z" />
<glyph unicode="&#xe99b;" glyph-name="img-full" d="M864 928h-704c-70.692 0-128-57.308-128-128v0-704c0-70.692 57.308-128 128-128v0h704c70.692 0 128 57.308 128 128v0 704c0 70.692-57.308 128-128 128v0zM368 736c44.183 0 80-35.817 80-80s-35.817-80-80-80c-44.183 0-80 35.817-80 80v0c0 44.183 35.817 80 80 80v0zM845.76 167.84c-2.838-4.726-7.935-7.839-13.76-7.84h-640c-8.834 0.003-15.995 7.165-15.995 16 0 2.92 0.782 5.656 2.148 8.013l-0.041-0.077 128 224c2.464 4.242 6.714 7.214 11.693 7.895l0.083 0.009c0.72 0.12 1.549 0.188 2.395 0.188 4.337 0 8.252-1.801 11.041-4.695l114.949-114.981 180.928 241.248c2.95 3.901 7.582 6.396 12.797 6.396 6.031 0 11.283-3.337 14.010-8.265l0.042-0.082 192-352c1.226-2.21 1.948-4.846 1.948-7.651 0-3.010-0.831-5.825-2.276-8.23l0.040 0.072z" />
<glyph unicode="&#xe99c;" glyph-name="arrow-up-thin" d="M524.8 924.8c-6.4 6.4-16 6.4-22.4 0 0 0 0 0 0 0l-339.2-336c-6.4-6.4-6.4-16 0-22.4 0 0 0 0 0 0l64-64c6.4-6.4 16-6.4 22.4 0 0 0 0 0 0 0l198.4 195.2v-713.6c0-9.6 6.4-16 16-16h96c9.6 0 16 6.4 16 16v713.6l195.2-195.2c6.4-6.4 16-6.4 22.4 0 0 0 0 0 0 0l64 64c6.4 6.4 6.4 16 0 22.4 0 0 0 0 0 0l-332.8 336z" />
<glyph unicode="&#xe99d;" glyph-name="account" d="M992-64h-64v32c0 230.4-185.6 416-416 416s-416-185.6-416-416v-32h-64v32c0 265.6 214.4 480 480 480s480-214.4 480-480v-32zM512 384c-160 0-288 128-288 288s128 288 288 288c160 0 288-128 288-288s-128-288-288-288zM512 896c-124.8 0-224-99.2-224-224s99.2-224 224-224c124.8 0 224 99.2 224 224s-99.2 224-224 224z" />
<glyph unicode="&#xe99e;" glyph-name="user-group-empty" d="M288 64h-224v224h-64v192c0 70.4 57.6 128 128 128h128c48 0 96-28.8 115.2-73.6l-57.6-28.8c-9.6 22.4-32 38.4-57.6 38.4h-128c-35.2 0-64-28.8-64-64v-128h64v-224h160v-64zM192 640c-70.4 0-128 57.6-128 128s57.6 128 128 128 128-57.6 128-128-57.6-128-128-128zM192 832c-35.2 0-64-28.8-64-64s28.8-64 64-64 64 28.8 64 64-28.8 64-64 64zM960 64h-224v64h160v224h64v128c0 35.2-28.8 64-64 64h-128c-25.6 0-48-16-57.6-35.2l-57.6 28.8c19.2 41.6 67.2 70.4 115.2 70.4h128c70.4 0 128-57.6 128-128v-192h-64v-224zM832 640c-70.4 0-128 57.6-128 128s57.6 128 128 128 128-57.6 128-128-57.6-128-128-128zM832 832c-35.2 0-64-28.8-64-64s28.8-64 64-64 64 28.8 64 64-28.8 64-64 64zM640-64h-256v256h-96v256c0 89.6 70.4 160 160 160h128c89.6 0 160-70.4 160-160v-256h-96v-256zM448 0h128v256h96v192c0 54.4-41.6 96-96 96h-128c-54.4 0-96-41.6-96-96v-192h96v-256zM512 640c-89.6 0-160 70.4-160 160s70.4 160 160 160 160-70.4 160-160-70.4-160-160-160zM512 896c-54.4 0-96-41.6-96-96s41.6-96 96-96 96 41.6 96 96-41.6 96-96 96z" />
<glyph unicode="&#xe99f;" glyph-name="alert-full" d="M928 928h-832c-35.346 0-64-28.654-64-64v0-832c0-35.346 28.654-64 64-64v0h832c35.346 0 64 28.654 64 64v0 832c0 35.346-28.654 64-64 64v0zM573.728 736l-29.728-384h-64l-29.728 384zM512 160c-35.346 0-64 28.654-64 64s28.654 64 64 64c35.346 0 64-28.654 64-64v0c0-35.346-28.654-64-64-64v0z" />
<glyph unicode="&#xe9a0;" glyph-name="view-empty" d="M512 96c-240 0-422.4 204.8-492.8 294.4-12.8 16-19.2 38.4-19.2 57.6s6.4 41.6 19.2 57.6c67.2 89.6 252.8 294.4 492.8 294.4s422.4-204.8 492.8-294.4c12.8-16 19.2-35.2 19.2-57.6s-6.4-41.6-19.2-57.6c-70.4-89.6-252.8-294.4-492.8-294.4zM64 470.4l6.4-3.2c-3.2-3.2-6.4-9.6-6.4-19.2s3.2-16 6.4-19.2v0c64-80 230.4-268.8 441.6-268.8s377.6 188.8 441.6 268.8v0c3.2 3.2 6.4 9.6 6.4 19.2s-3.2 16-6.4 19.2c-64 80-230.4 268.8-441.6 268.8-214.4 0-380.8-188.8-441.6-268.8l-6.4 3.2zM512 224c-124.8 0-224 99.2-224 224s99.2 224 224 224c124.8 0 224-99.2 224-224s-99.2-224-224-224zM512 608c-89.6 0-160-70.4-160-160s70.4-160 160-160 160 70.4 160 160-70.4 160-160 160z" />
<glyph unicode="&#xe9a1;" glyph-name="file-info-full" d="M928 960h-832c-17.673 0-32-14.327-32-32v0-960c0-17.673 14.327-32 32-32v0h832c17.673 0 32 14.327 32 32v0 960c0 17.673-14.327 32-32 32v0zM559.744 128h-95.488v416h95.488zM512 640c-35.346 0-64 28.654-64 64s28.654 64 64 64c35.346 0 64-28.654 64-64v0c0-35.346-28.654-64-64-64v0z" />
<glyph unicode="&#xe9a2;" glyph-name="bullet-list" d="M960 832h-544c-19.2 0-32-12.8-32-32s12.8-32 32-32h544c19.2 0 32 12.8 32 32s-12.8 32-32 32zM960 480h-544c-19.2 0-32-12.8-32-32s12.8-32 32-32h544c19.2 0 32 12.8 32 32s-12.8 32-32 32zM960 128h-544c-19.2 0-32-12.8-32-32s12.8-32 32-32h544c19.2 0 32 12.8 32 32s-12.8 32-32 32zM256 928h-192c-19.2 0-32-12.8-32-32v-192c0-19.2 12.8-32 32-32h192c19.2 0 32 12.8 32 32v192c0 19.2-12.8 32-32 32zM256 576h-192c-19.2 0-32-12.8-32-32v-192c0-19.2 12.8-32 32-32h192c19.2 0 32 12.8 32 32v192c0 19.2-12.8 32-32 32zM256 224h-192c-19.2 0-32-12.8-32-32v-192c0-19.2 12.8-32 32-32h192c19.2 0 32 12.8 32 32v192c0 19.2-12.8 32-32 32z" />
<glyph unicode="&#xe9a3;" glyph-name="list" d="M416 928h-352c-0.542 0.035-1.176 0.054-1.814 0.054-16.701 0-30.24-13.539-30.24-30.24 0-0.638 0.020-1.272 0.059-1.901l-0.004 0.086v-352c-0.035-0.542-0.054-1.176-0.054-1.814 0-16.701 13.539-30.24 30.24-30.24 0.638 0 1.272 0.020 1.901 0.059l-0.086-0.004h352c0.542-0.035 1.176-0.054 1.814-0.054 16.701 0 30.24 13.539 30.24 30.24 0 0.638-0.020 1.272-0.059 1.901l0.004-0.086v352c0.035 0.542 0.054 1.176 0.054 1.814 0 16.701-13.539 30.24-30.24 30.24-0.638 0-1.272-0.020-1.901-0.059l0.086 0.004zM576 800h384c0.542-0.035 1.176-0.054 1.814-0.054 16.701 0 30.24 13.539 30.24 30.24 0 0.638-0.020 1.272-0.059 1.901l0.004-0.086c0.035 0.542 0.054 1.176 0.054 1.814 0 16.701-13.539 30.24-30.24 30.24-0.638 0-1.272-0.020-1.901-0.059l0.086 0.004h-384c-0.542 0.035-1.176 0.054-1.814 0.054-16.701 0-30.24-13.539-30.24-30.24 0-0.638 0.020-1.272 0.059-1.901l-0.004 0.086c-0.035-0.542-0.054-1.176-0.054-1.814 0-16.701 13.539-30.24 30.24-30.24 0.638 0 1.272 0.020 1.901 0.059l-0.086-0.004zM576 608h384c0.542-0.035 1.176-0.054 1.814-0.054 16.701 0 30.24 13.539 30.24 30.24 0 0.638-0.020 1.272-0.059 1.901l0.004-0.086c0.035 0.542 0.054 1.176 0.054 1.814 0 16.701-13.539 30.24-30.24 30.24-0.638 0-1.272-0.020-1.901-0.059l0.086 0.004h-384c-0.542 0.035-1.176 0.054-1.814 0.054-16.701 0-30.24-13.539-30.24-30.24 0-0.638 0.020-1.272 0.059-1.901l-0.004 0.086c-0.035-0.542-0.054-1.176-0.054-1.814 0-16.701 13.539-30.24 30.24-30.24 0.638 0 1.272 0.020 1.901 0.059l-0.086-0.004zM416 384h-352c-0.542 0.035-1.176 0.054-1.814 0.054-16.701 0-30.24-13.539-30.24-30.24 0-0.638 0.020-1.272 0.059-1.901l-0.004 0.086v-352c-0.035-0.542-0.054-1.176-0.054-1.814 0-16.701 13.539-30.24 30.24-30.24 0.638 0 1.272 0.020 1.901 0.059l-0.086-0.004h352c0.542-0.035 1.176-0.054 1.814-0.054 16.701 0 30.24 13.539 30.24 30.24 0 0.638-0.020 1.272-0.059 1.901l0.004-0.086v352c0.035 0.542 0.054 1.176 0.054 1.814 0 16.701-13.539 30.24-30.24 30.24-0.638 0-1.272-0.020-1.901-0.059l0.086 0.004zM960 320h-384c-17.673 0-32-14.327-32-32s14.327-32 32-32v0h384c17.673 0 32 14.327 32 32s-14.327 32-32 32v0zM960 128h-384c-17.673 0-32-14.327-32-32s14.327-32 32-32v0h384c17.673 0 32 14.327 32 32s-14.327 32-32 32v0z" />
<glyph unicode="&#xe9a4;" glyph-name="open-in-new-tab-full" d="M915.2 960h-614.4c-60.8 0-108.8-60.8-108.8-131.2v-566.4c0-73.6 48-134.4 108.8-134.4h614.4c60.8 0 108.8 60.8 108.8 131.2v569.6c0 70.4-48 131.2-108.8 131.2zM832 460.8c0-6.4-3.2-16-9.6-19.2-12.8-12.8-32-12.8-44.8 0l-112 112-249.6-246.4c-12.8-12.8-32-12.8-44.8 0s-12.8 32 0 44.8l249.6 249.6-112 112c-6.4 6.4-9.6 12.8-9.6 19.2 0 19.2 12.8 32 28.8 35.2l297.6 22.4c19.2 0 32-16 32-35.2l-25.6-294.4zM723.2-64h-614.4c-60.8 0-108.8 60.8-108.8 131.2v569.6c0 70.4 48 131.2 108.8 131.2h83.2v-64h-83.2c-25.6 0-44.8-32-44.8-67.2v-566.4c0-38.4 19.2-70.4 44.8-70.4h614.4c25.6 0 44.8 32 44.8 67.2v60.8h64v-60.8c0-70.4-48-131.2-108.8-131.2z" />
<glyph unicode="&#xe9a5;" glyph-name="open-in-new-tab-empty" d="M915.2 128h-614.4c-60.8 0-108.8 60.8-108.8 131.2v569.6c0 70.4 48 131.2 108.8 131.2h614.4c60.8 0 108.8-60.8 108.8-131.2v-566.4c0-73.6-48-134.4-108.8-134.4zM300.8 896c-25.6 0-44.8-32-44.8-67.2v-566.4c0-38.4 19.2-70.4 44.8-70.4h614.4c25.6 0 44.8 32 44.8 67.2v569.6c0 35.2-19.2 67.2-44.8 67.2h-614.4zM777.6 441.6c12.8-12.8 32-12.8 44.8 0 6.4 6.4 9.6 12.8 9.6 19.2l22.4 294.4c0 19.2-12.8 32-32 35.2h-3.2l-294.4-22.4c-19.2 0-32-16-28.8-35.2 0-6.4 3.2-16 9.6-19.2l112-112-246.4-249.6c-12.8-12.8-12.8-32 0-44.8s32-12.8 44.8 0l249.6 249.6 112-115.2zM723.2-64h-614.4c-60.8 0-108.8 60.8-108.8 131.2v569.6c0 70.4 48 131.2 108.8 131.2h137.6v-64h-137.6c-25.6 0-44.8-32-44.8-67.2v-566.4c0-38.4 19.2-70.4 44.8-70.4h614.4c25.6 0 44.8 32 44.8 67.2v115.2h64v-115.2c0-70.4-48-131.2-108.8-131.2z" />
<glyph unicode="&#xe9a6;" glyph-name="collapse" d="M32 480h960v-64h-960v64z" />
<glyph unicode="&#xe9a7;" glyph-name="arrow-right-thin" d="M652.8 796.8c-6.4 6.4-16 6.4-22.4 0 0 0 0 0 0 0l-64-64c-6.4-6.4-6.4-16 0-22.4 0 0 0 0 0 0l195.2-195.2h-713.6c-9.6-3.2-16-9.6-16-19.2v-96c0-9.6 6.4-16 16-16h713.6l-195.2-195.2c-6.4-6.4-6.4-16 0-22.4 0 0 0 0 0 0l64-64c6.4-6.4 16-6.4 22.4 0 0 0 0 0 0 0l336 336c6.4 6.4 6.4 16 0 22.4 0 0 0 0 0 0l-336 336z" />
<glyph unicode="&#xe9a8;" glyph-name="arrow-left-thin" d="M976 512h-713.6l195.2 195.2c6.4 6.4 6.4 16 0 22.4 0 0 0 0 0 0l-64 64c-6.4 6.4-16 6.4-22.4 0 0 0 0 0 0 0l-336-332.8c-6.4-6.4-6.4-16 0-22.4 0 0 0 0 0 0l336-336c6.4-6.4 16-6.4 22.4 0 0 0 0 0 0 0l64 64c6.4 6.4 6.4 16 0 22.4 0 0 0 0 0 0l-195.2 195.2h713.6c9.6 0 16 6.4 16 16v96c0 9.6-6.4 16-16 16z" />
<glyph unicode="&#xe9a9;" glyph-name="arrow-down-thin" d="M796.8 396.8c-6.4 6.4-16 6.4-22.4 0 0 0 0 0 0 0l-198.4-198.4v713.6c0 9.6-6.4 16-16 16h-96c-9.6 0-16-6.4-16-16v-713.6l-195.2 195.2c-6.4 6.4-16 6.4-22.4 0 0 0 0 0 0 0l-64-64c-6.4-6.4-6.4-16 0-22.4 0 0 0 0 0 0l336-336c6.4-6.4 16-6.4 22.4 0 0 0 0 0 0 0l336 336c6.4 6.4 6.4 16 0 22.4 0 0 0 0 0 0l-64 67.2z" />
<glyph unicode="&#xe9aa;" glyph-name="location" d="M752.544 236.544c-14.816-20.224-29.632-39.584-44-57.824 144.96-21.088 219.456-61.952 219.456-82.72 0-28.704-141.536-96-416-96s-416 67.296-416 96c0 20.768 74.496 61.632 219.456 82.688-14.368 18.24-29.184 37.6-44 57.824-135.648-23.68-239.456-69.568-239.456-140.512 0-109.952 248.8-160 480-160s480 50.048 480 160c0 70.944-103.808 116.832-239.456 140.544zM512 960c-173.024 0-352-126.208-352-337.44 0-199.008 315.36-533.312 328.8-547.424 6.016-6.368 14.4-9.952 23.2-9.952s17.152 3.584 23.2 9.952c13.44 14.112 328.8 348.384 328.8 547.424 0 211.232-178.976 337.44-352 337.44zM512 480c-70.688 0-128 57.312-128 128s57.312 128 128 128 128-57.312 128-128-57.312-128-128-128z" />
<glyph unicode="&#xe9ab;" glyph-name="present" d="M992 736h-177.792c11.053 18.294 17.648 40.362 17.792 63.96v0.040c0 70.692-57.308 128-128 128v0c-100.16 0-160-76.352-192-138.336-32 61.984-91.84 138.336-192 138.336-70.692 0-128-57.308-128-128v0c0.144-23.638 6.739-45.706 18.111-64.57l-0.319 0.57h-177.792c-17.673 0-32-14.327-32-32v0-128c0-17.673 14.327-32 32-32v0h960c17.673 0 32 14.327 32 32v0 128c0 17.673-14.327 32-32 32v0zM704 864c35.346 0 64-28.654 64-64s-28.654-64-64-64v0h-146.688c21.184 49.728 67.168 128 146.688 128zM256 800c0 35.346 28.654 64 64 64v0c79.104 0 125.248-78.272 146.56-128h-146.56c-35.346 0-64 28.654-64 64v0zM576-32h224c70.692 0 128 57.308 128 128v0 384h-352zM96 96c0-70.692 57.308-128 128-128v0h224v512h-352z" />
<glyph unicode="&#xe9ac;" glyph-name="comment" d="M0 512v-0.1c0.7-103.5 43-197.2 111-265.1l-18.6-264 288 118.2-4.1 0.8c43.6-9.9 89-15.3 135.7-15.4 282.3 0 512 190.9 512 425.6 0 233.3-224.9 416-512 416s-512-182.7-512-416v0zM448 448h320v-64h-320v64zM256 640h512v-64h-512v64z" />
<glyph unicode="&#xe9ad;" glyph-name="comment-empty" d="M112 246.4c-73.6 73.6-112 166.4-112 265.6 0 233.6 224 416 512 416s512-182.4 512-416-230.4-425.6-512-425.6c-41.6 0-86.4 6.4-131.2 16l-288-118.4 19.2 262.4zM374.4 166.4h9.6c44.8-9.6 86.4-16 128-16 246.4 0 448 163.2 448 361.6s-195.2 352-448 352-448-153.6-448-352c0-86.4 35.2-166.4 102.4-230.4l9.6-9.6-12.8-192 211.2 86.4zM256 640h512v-64h-512v64zM256 448h320v-64h-320v64z" />
<glyph unicode="&#xe9ae;" glyph-name="delete" d="M128 672v-608c0-0.416 0-0.896 0-1.376 0-69.92 56.704-126.624 126.624-126.624 0.48 0 0.96 0 1.472 0h511.936c0.416 0 0.896 0 1.376 0 69.92 0 126.624 56.704 126.624 126.624 0 0.48 0 0.96 0 1.472v-0.064 608zM352 128h-64v352h64zM544 128h-64v352h64zM736 128h-64v352h64zM960 800h-256v128c0 17.664-14.336 32-32 32v0h-320c-17.664 0-32-14.336-32-32v0-128h-256c-17.664 0-32-14.336-32-32s14.336-32 32-32v0h896c17.664 0 32 14.336 32 32s-14.336 32-32 32v0zM384 896h256v-96h-256z" />
<glyph unicode="&#xe9af;" glyph-name="b-chart" d="M992 32h-960c-19.2 0-32-12.8-32-32s12.8-32 32-32h960c19.2 0 32 12.8 32 32s-12.8 32-32 32zM64 576h192c19.2 0 32-12.8 32-32v-416c0-19.2-12.8-32-32-32h-192c-19.2 0-32 12.8-32 32v416c0 19.2 12.8 32 32 32zM416 928h192c19.2 0 32-12.8 32-32v-768c0-19.2-12.8-32-32-32h-192c-19.2 0-32 12.8-32 32v768c0 19.2 12.8 32 32 32zM768 416h192c19.2 0 32-12.8 32-32v-256c0-19.2-12.8-32-32-32h-192c-19.2 0-32 12.8-32 32v256c0 19.2 12.8 32 32 32z" />
<glyph unicode="&#xe9b0;" glyph-name="add-b" d="M512-64c-61.44 0-102.4 40.96-102.4 102.4v819.2c0 61.44 40.96 102.4 102.4 102.4s102.4-40.96 102.4-102.4v-819.2c0-61.44-40.96-102.4-102.4-102.4zM921.6 345.6h-819.2c-61.44 0-102.4 40.96-102.4 102.4s40.96 102.4 102.4 102.4h819.2c61.44 0 102.4-40.96 102.4-102.4s-40.96-102.4-102.4-102.4z" />
</font>
</defs>
</svg>
